Титaник 3Д / Titаnic 3D 3D (Джеймс Кэмерон / James Cameron) [1997, Драма, Мелодрама, BDrip, 1080p] OverUnder / Вертикальная стереопара

 
Автор Сообщение

TorrentFilm ®

Пол:

Стаж: 2 года

Сообщений: 7741



Награды: Нет

Торрент-статистика

Создавать темы 01-Янв-2016 00:07

[Цитировать]

Титaник 3Д / Titаnic 3D
Год выпуска: 1997
Страна: США
Студия: 20th Century Fox, Paramount Pictures, Lightstorm Entertainment
Жанр: Драма, Мелодрама
Продолжительность: 03:14:54
Перевод: Дубляж (1997), Дубляж (2012)
Русские субтитры: нет
Режиссер на русском: Джеймс Кэмерон
Режиссер на английском: James Cameron
В ролях: Леонардо ДиКаприо, Кейт Уинслет, Билли Зейн, Кэти Бейтс, Фрэнсис Фишер, Глория Стюарт, Билл Пэкстон, Бернард Хилл, Дэвид Уорнер, Виктор Гарбер
Описание: Фильм о любви, которая потрясла весь мир и по праву может называться самым знаменитым фильмом мирового кинематографа. Звезды Голливуда Леонардо Ди Каприо и Кейт Уинслет блистают на экране в ролях молодых влюбленных Джека и Розы, которые находят друг друга в первом и последнем плавании "непотопляемого" "Титаника". Они не могли знать, что шикарный лайнер столкнется с айсбергом в холодных водах Северной Атлантики, и их страстная любовь превратится в схватку со смертью.
ВНИМАНИЕ ! :На встроенных ТВ-плейерах работать не будет!!!
Сэмпл : [url=http://narod.ru/disk/60779871001.f2f4bb1f5931f129bcaedb89e7b6d379/Titanic%20(1)-002.mkv.html]http://narod.ru/disk/60779871001.f2f4bb1f5931f129bc...(1)-002.mkv.html[/url]
Качество: BDrip
Контейнер: MKV
Формат 3D: OverUnder / Вертикальная стереопара
Порядок ракурсов: левый ракурс первый
Видео кодек: x264
Аудио кодек: AC3
Видео: AVC / 23,976 fps / 1920х2160 / 27.4 Mbps
Аудио: Русский / AC3 / 48 KHz / 5.1 ch / 448 Kbps (Дубляж - 1997 г.)
Аудио 2: Русский / DTS / 48 KHz / 5.1 ch / 755 Kbps (Дубляж - 2012 г.)
Аудио 3: Английский / AC3 / 48 KHz / 5.1 ch / 640 Kbps
Субтитры: отсутствуют

MediaInfo

General
Unique ID : 218482260339686393382837307601195220976 (0xA45E271AA927DAEE92028F73E9D1BFF0)
Complete name : D:\Titanic.mkv
Format : Matroska
Format version : Version 2
File size : 40.7 GiB
Duration : 3h 14mn
Overall bit rate : 29.9 Mbps
Encoded date : UTC 2012-09-08 01:49:38
Writing application : mkvmerge v3.4.0 ('Rapunzel') сборка от May 15 2010 09:38:20
Writing library : libebml v0.8.0 + libmatroska v0.9.0
Video
ID : 1
Format : AVC
Format/Info : Advanced Video Codec
Format profile : High@L5.0
Format settings, CABAC : Yes
Format settings, ReFrames : 4 frames
Codec ID : V_MPEG4/ISO/AVC
Bit rate : 27.4 Mbps
Width : 1 920 pixels
Height : 2 160 pixels
Display aspect ratio : 0.889
Frame rate mode : Variable
Original frame rate : 23.976 fps
Color space : YUV
Chroma subsampling : 4:2:0
Bit depth : 8 bits
Scan type : Progressive
Title : Rip by SeRoGa00
Writing library : x264 core 125 r2208kMod d9d2288
Encoding settings : cabac=1 / ref=4 / deblock=1:-1:-1 / analyse=0x3:0x133 / me=umh / subme=9 / psy=1 / fade_compensate=0.00 / psy_rd=1.00:0.15 / mixed_ref=1 / me_range=16 / chroma_me=1 / trellis=2 / 8x8dct=1 / cqm=0 / deadzone=21,11 / fast_pskip=1 / chroma_qp_offset=-3 / threads=9 / lookahead_threads=1 / sliced_threads=0 / nr=0 / decimate=1 / interlaced=0 / bluray_compat=0 / constrained_intra=0 / bframes=6 / b_pyramid=2 / b_adapt=2 / b_bias=0 / direct=3 / weightb=1 / open_gop=0 / weightp=2 / keyint=250 / keyint_min=23 / scenecut=40 / intra_refresh=0 / rc_lookahead=60 / rc=crf / mbtree=1 / crf=18.0000 / qcomp=0.60 / qpmin=10 / qpmax=69 / qpstep=4 / vbv_maxrate=40000 / vbv_bufsize=40000 / crf_max=0.0 / nal_hrd=none / ip_ratio=1.40 / aq=1:1.00
Language : English
Default : Yes
Forced : No
Audio #1
ID : 2
Format : AC-3
Format/Info : Audio Coding 3
Mode extension : CM (complete main)
Format settings, Endianness : Big
Codec ID : A_AC3
Duration : 3h 14mn
Bit rate mode : Constant
Bit rate : 448 Kbps
Channel(s) : 6 channels
Channel positions : Front: L C R, Side: L R, LFE
Sampling rate : 48.0 KHz
Bit depth : 16 bits
Compression mode : Lossy
Stream size : 624 MiB (1%)
Title : DUB
Language : Russian
Default : Yes
Forced : No
Audio #2
ID : 3
Format : DTS
Format/Info : Digital Theater Systems
Codec ID : A_DTS
Duration : 3h 14mn
Bit rate mode : Constant
Bit rate : 755 Kbps
Channel(s) : 6 channels
Channel positions : Front: L C R, Side: L R, LFE
Sampling rate : 48.0 KHz
Bit depth : 24 bits
Compression mode : Lossy
Stream size : 1.03 GiB (3%)
Title : DUB new
Language : Russian
Default : No
Forced : No
Audio #3
ID : 4
Format : AC-3
Format/Info : Audio Coding 3
Mode extension : CM (complete main)
Format settings, Endianness : Big
Codec ID : A_AC3
Duration : 3h 14mn
Bit rate mode : Constant
Bit rate : 640 Kbps
Channel(s) : 6 channels
Channel positions : Front: L C R, Side: L R, LFE
Sampling rate : 48.0 KHz
Bit depth : 16 bits
Compression mode : Lossy
Stream size : 892 MiB (2%)
Language : English
Default : No
Forced : No

Скриншоты


[Профиль] [ЛС]
Кто просматривает тему:

Показать сообщения:    

Текущее время: Сегодня 12:10

Часовой пояс: GMT



Вы не можете начинать темы
Вы не можете отвечать на сообщения
Вы не можете редактировать свои сообщения
Вы не можете удалять свои сообщения
Вы не можете голосовать в опросах
Вы не можете прикреплять файлы к сообщениям
Вы не можете скачивать файлы