Титаник 3Д / Titanic 3D (Джеймс Кэмерон / James Cameron) [1997, драма, мелодрама, HDrip-avc] Half SideBySide / Горизонтальная анаморфная стереопара

 
Автор Сообщение

TorrentFilm ®

Пол:

Стаж: 2 года

Сообщений: 7741



Награды: Нет

Торрент-статистика

Создавать темы 01-Янв-2016 00:08

[Цитировать]

Титаник 3D / Titanic 3D
Год выпуска: 1997
Страна: США
Студия: 20th century FOX
Жанр: драма, мелодрама
Продолжительность: 03:14:49
Перевод: Профессиональный (дублированный)
Русские субтитры: нет
Режиссер на русском: Джеймс Кэмерон
Режиссер на английском: James Cameron
В ролях: Леонардо ДиКаприо, Билл Пэкстон, Бернард Хилл, Фрэнсис Фишер, Кейт Уинслет, Билли Зейн, Кэти Бэйтс, Джонатан Хайд, Дэвид Уорнер, Йоан Граффадд, Виктор Гарбер, Сьюзи Эмис, Марк Линдсэй Чэпмэн, Дэнни Нуччи, Глория Стюарт, Брендан Коннолли, Джеймс Кэмерон
Описание: Молодые влюбленные Джек и Роза находят друг друга в первом и последнем плавании «непотопляемого» Титаника. Они не могли знать, что шикарный лайнер столкнется с айсбергом в холодных водах Северной Атлантики, и их страстная любовь превратится в схватку со смертью...
Дополнительная информация по релизу: Для перекодирования взято ОТСЮДА.
Качество: BDrip
Контейнер: AVI
Формат 3D: Half SideBySide / Горизонтальная анаморфная стереопара
Порядок ракурсов: левый ракурс первый
Видео кодек: h.264
Аудио кодек: MP3
Видео: MPEG4 Video (H264), 1280x720 (16:9), 23.976fps
Аудио: MPEG Audio Layer 3, 44100Hz stereo, 192kbps
Субтитры: отсутствуют

MediaInfo

File size : 2.97 GiB
Duration : 3h 14mn
Overall bit rate : 2 183 Kbps
Video
ID : 0
Format : AVC
Format/Info : Advanced Video Codec
Format profile : Main@L5.1
Format settings, CABAC : Yes
Format settings, ReFrames : 1 frame
Codec ID : H264
Duration : 3h 14mn
Bit rate : 1 981 Kbps
Width : 1 280 pixels
Height : 720 pixels
Display aspect ratio : 16:9
Frame rate : 23.976 fps
Color space : YUV
Chroma subsampling : 4:2:0
Bit depth : 8 bits
Scan type : Progressive
Bits/(Pixel*Frame) : 0.090
Stream size : 2.70 GiB (91%)
Audio
ID : 1
Format : MPEG Audio
Format version : Version 1
Format profile : Layer 3
Codec ID : 55
Codec ID/Hint : MP3
Duration : 3h 14mn
Bit rate mode : Constant
Bit rate : 192 Kbps
Channel(s) : 2 channels
Sampling rate : 44.1 KHz
Compression mode : Lossy
Stream size : 268 MiB (9%)
Alignment : Split accross interleaves
Interleave, duration : 42 ms (1.00 video frame)
Interleave, preload duration : 30 ms
Writing library : LAMELAME_MAJOR_VERSI

Скриншоты


[Профиль] [ЛС]
Кто просматривает тему:

Форум Тема Автор Размер
National Geographic NG: Осушить Титаник / Drain the Titanic (Jobin Sampson) [2015 г., Документальный, научно-познавательный, HDTVRip 720p] skorpionN 1.04 GB
Viasat History Viasat History: Гинденбург: Титаник небес / Hindenburg: Titanic of the Skies (Шон Гранди / Sean Grundy) [2007 г., Документально- постановочный, драма, SATRip] skorpionN 1.24 GB
Фильмы 2015 года Атака титанов. Фильм второй: Конец света / Shingeki no kyojin endo obu za wârudo (2015) HDRip от MegaPeer | iTunes достали все 742 MB
Фильмы (HD Rips | 720p, 1080p) Атака титанов. Фильм второй: Конец света / Shingeki no kyojin endo obu za wârudo (2015) WEB-DL 1080p | iTunes достали все 2.92 GB
Фильмы 2015 года Атака титанов. Фильм второй: Конец света / Shingeki no kyojin endo obu za wârudo (2015) WEB-DLRip-AVC | iTunes достали все 1.58 GB
Фильмы (HD Rips | 720p, 1080p) Атака титанов. Фильм второй: Конец света / Shingeki no kyojin: Attack on Titan - End of the World (2015) BDRip 1080p | iTunes достали все 9.07 GB
Фильмы (HD Rips | 720p, 1080p) Атака титанов. Фильм второй: Конец света / Shingeki no kyojin: Attack on Titan - End of the World (2015) BDRip 720p | iTunes достали все 3.65 GB
Фильмы (HD Rips | 720p, 1080p) Атака Титанов. Фильм первый: Жестокий мир / Shingeki no kyojin: Attack on Titan (2015) BDRip 720p | iTunes BOSS 4.14 GB
Показать сообщения:    

Текущее время: Сегодня 10:45

Часовой пояс: GMT



Вы не можете начинать темы
Вы не можете отвечать на сообщения
Вы не можете редактировать свои сообщения
Вы не можете удалять свои сообщения
Вы не можете голосовать в опросах
Вы не можете прикреплять файлы к сообщениям
Вы не можете скачивать файлы