Тир / Shooting Range (Владимир Тарасов) [1979, фантастика, HDTV 1080i]

 
Автор Сообщение

painkiller ®

Стаж: 2 года 3 месяца

Сообщений: 582



Награды: Нет

Торрент-статистика

Создавать темы 27-Авг-2014 15:28

[Цитировать]

Тир / Shooting Range
Страна: СССР
Жанр: фантастика
Продолжительность: 00:19:19
Год выпуска: 1979
Русские субтитры: нет
Режиссёр: Владимир Тарасов
Музыка: В.Ганелин, В.Чекасин, В.Тарасов
Описание: Фантастический мультфильм по пьесе В.Славкина
Дополнительная информация: Качество картинки невысокое. На изображение наложены английские субтитры. Этот же мультфильм в DivX-качестве:
Формат: MKV
Видео: AVC, 1920 x 1080 (AR 16:9), 10 Мбит/сек , 25 кадров/сек
Аудио: Dolby AC3, 384 Кбит/сек, 48,0 КГц, 2 канала
Субтитры: английские неудаляемые (hardsubs)

Подробные технические данные

ОбщееУникальный идентификатор : 246239341665132056059422784080462581864 (0xB93FF8DF78C2342A98F4B00CC7B59068)Полное имя : Shooting_Range.mkvФормат : MatroskaВерсия формата : Version 2Размер файла : 1,43 ГбайтПродолжительность : 19 м.Общий поток : 10,6 Мбит/секНазвание фильма : Shooting Range by RozantsevДата кодирования : UTC 2012-08-02 13:41:15Программа кодирования : mkvmerge v5.7.0 ('The Whirlwind') built on Jul 8 2012 20:08:51Библиотека кодирования : libebml v1.2.3 + libmatroska v1.3.0
ВидеоИдентификатор : 1Формат : AVCФормат/Информация : Advanced Video CodecПрофиль формата : Main@L4.0Параметр CABAC формата : ДаПараметр ReFrames формата : 4 кадраИдентификатор кодека : V_MPEG4/ISO/AVCПродолжительность : 19 м.Битрейт : 10,0 Мбит/секШирина : 1920 пикселейВысота : 1080 пикселейСоотношение сторон : 16:9Частота кадров : 50,000 кадров/секЧастота кадров в оригинале : 25,000 кадров/секЦветовое пространство : YUVСубдискретизация насыщенности : 4:2:0Битовая глубина : 8 битТип развёртки : ЧересстрочнаяПорядок развёртки : Верхнее поле первоеБит/(Пиксели*Кадры) : 0.097Размер потока : 1,35 Гбайт (94%)Заголовок : Video AVCЯзык : EnglishDefault : ДаForced : НетОсновные цвета : BT.709-5, BT.1361, IEC 61966-2-4, SMPTE RP177Характеристики трансфера : BT.709-5, BT.1361Коэффициенты матрицы : BT.709-5, BT.1361, IEC 61966-2-4 709, SMPTE RP177
АудиоИдентификатор : 2Формат : AC-3Формат/Информация : Audio Coding 3Расширение режима : CM (complete main)Параметр Endianness формата : BigИдентификатор кодека : A_AC3Продолжительность : 19 м.Вид битрейта : ПостоянныйБитрейт : 384 Кбит/секКаналы : 2 каналаРасположение каналов : Front: L RЧастота : 48,0 КГцБитовая глубина : 16 битМетод сжатия : С потерямиРазмер потока : 53,1 Мбайт (4%)Заголовок : Audio Ac3Язык : EnglishDefault : ДаForced : Нет

Скриншоты

[Профиль] [ЛС]
Кто просматривает тему:

Показать сообщения:    

Текущее время: Сегодня 14:32

Часовой пояс: GMT



Вы не можете начинать темы
Вы не можете отвечать на сообщения
Вы не можете редактировать свои сообщения
Вы не можете удалять свои сообщения
Вы не можете голосовать в опросах
Вы не можете прикреплять файлы к сообщениям
Вы не можете скачивать файлы