Типа копы / Let's Be Cops (2014) BDRip 1080p от ExKinoRay | Лицензия

 
Автор Сообщение

sergej644 ®

Пол:

Стаж: 4 года 11 месяцев

Сообщений: 6035

Откуда: Soviet Union



Награды: Нет

Торрент-статистика

Создавать темы 19-Ноя-2014 11:27

[Цитировать]

Информация о фильме
Название: Типа копы
Оригинальное название: Let's Be Cops
Год выпуска: 2014
Жанр: Боевик, комедия
Выпущено: США, 20th Century Fox Film Corporation, Genre Films, WideAwake
Режиссер: Люк Гринфилд
В ролях: Дэймон Уайанс мл., Джейк Джонсон, Роб Риггл, Нина Добрев, Джеймс Д’Арси, Энди Гарсиа, Анджела Кереч, Кинг, Либби Блэнтон, Кигэн-Майкл Ки
О фильме: Двое приятелей переодеваются в полицейских для костюмированной вечеринки, в результате чего они становятся местной сенсацией. Но затем по стечению обстоятельств они впутываются в дела реальных бандитов и грязных детективов…

Файл
Качество: BDRip (1080p)
Видео: MPEG-4 AVC, 9111 Кбит/с, 1920х1038, 23.976 кадр/с
Аудио: Русский (АС3, 6 ch, 640 Кбит/с), (DTS, 6 ch, 768 Кбит/с), украинский (АС3, 6 ch, 448 Кбит/с), английский (DTS, 6 ch, 1509 Кбит/с)
Размер: 9.10 ГБ
Продолжительность: 01:44:28
Перевод: Дублированный
Субтитры: Русские, английские
Сохранены оригинальные чаптеры как на Blu-Ray.
Озвучивание - Дублированное (Лицензия)

x264

x264 [info]: frame I:1557 Avg QP:16.34 size:261569
x264 [info]: frame P:36689 Avg QP:19.71 size: 79534
x264 [info]: frame B:112043 Avg QP:21.11 size: 34012
x264 [info]: consecutive B-frames: 4.4% 4.5% 6.6% 24.7% 17.6% 37.5% 3.0% 0.8% 0.4% 0.5%
x264 [info]: mb I I16..4: 6.8% 82.1% 11.1%
x264 [info]: mb P I16..4: 1.4% 10.6% 0.9% P16..4: 33.5% 34.1% 6.9% 1.7% 0.1% skip:10.8%
x264 [info]: mb B I16..4: 0.2% 1.1% 0.1% B16..8: 39.9% 18.1% 2.0% direct: 7.0% skip:31.8% L0:44.5% L1:46.2% BI: 9.3%
x264 [info]: 8x8 transform intra:82.5% inter:69.7%
x264 [info]: direct mvs spatial:98.4% temporal:1.6%
x264 [info]: coded y,uvDC,uvAC intra: 86.0% 87.3% 68.7% inter: 27.2% 41.1% 23.0%
x264 [info]: i16 v,h,dc,p: 30% 14% 4% 52%
x264 [info]: i8 v,h,dc,ddl,ddr,vr,hd,vl,hu: 8% 7% 6% 11% 15% 14% 14% 13% 13%
x264 [info]: i4 v,h,dc,ddl,ddr,vr,hd,vl,hu: 11% 10% 6% 9% 15% 14% 13% 10% 12%
x264 [info]: i8c dc,h,v,p: 46% 19% 17% 19%
x264 [info]: Weighted P-Frames: Y:1.6% UV:0.9%
x264 [info]: ref P L0: 52.7% 9.0% 26.1% 10.6% 1.6% 0.0%
x264 [info]: ref B L0: 84.6% 12.4% 3.0%
x264 [info]: ref B L1: 92.7% 7.3%
x264 [info]: kb/s:9107.46

Инфо-файл

Общее
Уникальный идентификатор : 197755961807449024888871001783079203549 (0x94C669B0B55AD48FA2D4242A420AF2DD)
Полное имя : D:ЗагрузкиLets.Be.Cops.2014.x264.BDRip.(1080p).ExKinoRay.mkv
Формат : Matroska
Версия формата : Version 2
Размер файла : 9,10 Гбайт
Продолжительность : 1 ч. 44 м.
Общий поток : 12,5 Мбит/сек
Название фильма : Типа копы.2014.Rip by: ollan
Дата кодирования : UTC 2014-11-19 09:17:26
Программа кодирования : mkvmerge v5.6.0 ('Kenya Kane') built on May 27 2012 16:44:04
Библиотека кодирования : libebml v1.2.3 + libmatroska v1.3.0
Видео
Идентификатор : 1
Формат : AVC
Формат/Информация : Advanced Video Codec
Профиль формата : High@L4.1
Параметр CABAC формата : Да
Параметр ReFrames формата : 4 кадра
Идентификатор кодека : V_MPEG4/ISO/AVC
Продолжительность : 1 ч. 44 м.
Битрейт : 9111 Кбит/сек
Ширина : 1920 пикселей
Высота : 1036 пикселей
Соотношение сторон : 1,85:1
Режим частоты кадров : Постоянный
Частота кадров : 23,976 кадра/сек
Цветовое пространство : YUV
Субдискретизация насыщенности : 4:2:0
Битовая глубина : 8 бит
Тип развёртки : Прогрессивная
Бит/(Пиксели*Кадры) : 0.191
Размер потока : 6,47 Гбайт (71%)
Библиотека кодирования : x264 core 125 r2200 999b753
Настройки программы : cabac=1 / ref=4 / deblock=1:-3:-3 / analyse=0x3:0x133 / me=umh / subme=11 / psy=1 / psy_rd=1.00:0.10 / mixed_ref=1 / me_range=32 / chroma_me=1 / trellis=2 / 8x8dct=1 / cqm=0 / deadzone=21,11 / fast_pskip=0 / chroma_qp_offset=-3 / threads=12 / lookahead_threads=2 / sliced_threads=0 / nr=0 / decimate=0 / interlaced=0 / bluray_compat=0 / constrained_intra=0 / bframes=9 / b_pyramid=2 / b_adapt=2 / b_bias=0 / direct=3 / weightb=1 / open_gop=0 / weightp=2 / keyint=240 / keyint_min=23 / scenecut=40 / intra_refresh=0 / rc_lookahead=40 / rc=2pass / mbtree=1 / bitrate=9111 / ratetol=1.0 / qcomp=0.60 / qpmin=0 / qpmax=69 / qpstep=4 / cplxblur=20.0 / qblur=0.5 / ip_ratio=1.40 / aq=1:1.00
Язык : English
Default : Да
Forced : Нет
Аудио #1
Идентификатор : 2
Формат : AC-3
Формат/Информация : Audio Coding 3
Расширение режима : CM (complete main)
Параметр Endianness формата : Big
Идентификатор кодека : A_AC3
Продолжительность : 1 ч. 44 м.
Вид битрейта : Постоянный
Битрейт : 640 Кбит/сек
Каналы : 6 каналов
Расположение каналов : Front: L C R, Side: L R, LFE
Частота : 48,0 КГц
Битовая глубина : 16 бит
Метод сжатия : С потерями
Размер потока : 478 Мбайт (5%)
Заголовок : Дублированный (Лицензия)
Язык : Russian
Default : Да
Forced : Нет
Аудио #2
Идентификатор : 3
Формат : AC-3
Формат/Информация : Audio Coding 3
Расширение режима : CM (complete main)
Параметр Endianness формата : Big
Идентификатор кодека : A_AC3
Продолжительность : 1 ч. 44 м.
Вид битрейта : Постоянный
Битрейт : 448 Кбит/сек
Каналы : 6 каналов
Расположение каналов : Front: L C R, Side: L R, LFE
Частота : 48,0 КГц
Битовая глубина : 16 бит
Метод сжатия : С потерями
Размер потока : 335 Мбайт (4%)
Заголовок : Дублированный (Лицензия)
Язык : Ukrainian
Default : Нет
Forced : Нет
Аудио #3
Идентификатор : 4
Формат : DTS
Формат/Информация : Digital Theater Systems
Режим : 16
Параметр Endianness формата : Big
Идентификатор кодека : A_DTS
Продолжительность : 1 ч. 44 м.
Вид битрейта : Постоянный
Битрейт : 768 Кбит/сек
Каналы : 6 каналов
Расположение каналов : Front: L C R, Side: L R, LFE
Частота : 48,0 КГц
Битовая глубина : 24 бит
Метод сжатия : С потерями
Размер потока : 574 Мбайт (6%)
Заголовок : Дублированный (Лицензия)
Язык : Russian
Default : Нет
Forced : Нет
Аудио #4
Идентификатор : 5
Формат : DTS
Формат/Информация : Digital Theater Systems
Режим : 16
Параметр Endianness формата : Big
Идентификатор кодека : A_DTS
Продолжительность : 1 ч. 44 м.
Вид битрейта : Постоянный
Битрейт : 1509 Кбит/сек
Каналы : 6 каналов
Расположение каналов : Front: L C R, Side: L R, LFE
Частота : 48,0 КГц
Битовая глубина : 24 бит
Метод сжатия : С потерями
Размер потока : 1,10 Гбайт (12%)
Язык : English
Default : Нет
Forced : Нет
Текст #1
Идентификатор : 6
Формат : UTF-8
Идентификатор кодека : S_TEXT/UTF8
Идентификатор кодека/Информация : UTF-8 Plain Text
Заголовок : Full
Язык : Russian
Default : Нет
Forced : Нет
Текст #2
Идентификатор : 7
Формат : UTF-8
Идентификатор кодека : S_TEXT/UTF8
Идентификатор кодека/Информация : UTF-8 Plain Text
Заголовок : Full
Язык : English
Default : Нет
Forced : Нет
Меню
00:00:00.000 : en:Chapter 01
00:01:58.785 : en:Chapter 03
00:03:34.797 : en:Chapter 05
00:07:24.652 : en:Chapter 07
00:11:11.629 : en:Chapter 09
00:13:44.281 : en:Chapter 11
00:17:39.099 : en:Chapter 13
00:19:59.656 : en:Chapter 15
00:23:06.134 : en:Chapter 17
00:26:43.601 : en:Chapter 19
00:31:26.926 : en:Chapter 21
00:33:19.664 : en:Chapter 23
00:39:32.203 : en:Chapter 25
00:41:30.654 : en:Chapter 27
00:44:34.421 : en:Chapter 29
00:48:47.925 : en:Chapter 31
00:52:29.146 : en:Chapter 33
00:54:43.321 : en:Chapter 35
00:59:54.591 : en:Chapter 37
01:02:48.014 : en:Chapter 39
01:06:55.594 : en:Chapter 41
01:09:15.734 : en:Chapter 43
01:10:45.241 : en:Chapter 45
01:14:03.021 : en:Chapter 47
01:18:00.217 : en:Chapter 49
01:21:58.663 : en:Chapter 51
01:24:54.964 : en:Chapter 53
01:28:35.393 : en:Chapter 55
01:30:09.570 : en:Chapter 57
01:33:38.029 : en:Chapter 59
01:37:09.448 : en:Chapter 61
01:38:32.114 : en:Chapter 63

Скриншоты



Rip by:
[Профиль] [ЛС]
Кто просматривает тему:

Показать сообщения:    

Текущее время: Сегодня 22:35

Часовой пояс: GMT



Вы не можете начинать темы
Вы не можете отвечать на сообщения
Вы не можете редактировать свои сообщения
Вы не можете удалять свои сообщения
Вы не можете голосовать в опросах
Вы не можете прикреплять файлы к сообщениям
Вы не можете скачивать файлы