Тимбер - говорящая собака / Timber the Treasure Dog (Эри Новак / Ari Novak) [2016, США, Семейный, WEB-DLRip] DVO

 
Автор Сообщение

TorrentFilm ®

Пол:

Стаж: 2 года

Сообщений: 7741



Награды: Нет

Торрент-статистика

Создавать темы 20-Мар-2016 00:08

[Цитировать]

-Тимбер - говорящая собакаTimber the Treasure Dog- Страна: США
Жанр: Семейный
Год выпуска: 2016
Продолжительность: 01:28:56
Перевод: Любительский (двухголосый закадровый)
Cубтитры: нет
Режиссер: Эри Новак / Ari Novak-В ролях: Форд Бримли, Соня Роуз, Кэйси Фицджералд, Джон Фриман-Описание: Маленькому мальчику нужно очень постараться, проявить всю смекалку, находчивость и терпение, чтобы его лучший другу (симпатичному говорящему псу) родители разрешили остаться жить вместе дома...- -Качество видео: WEB-DLRip
Формат видео: AVI
Видео: Xvid 720x400 23.976fps 2 049 Kbps
Аудио: 48 kHz, AC3 Dolby Digital, 2/0 (L,R) ch, ~192 kbps Russian-

MediaInfo

General
Complete name : D:\Фильмы\Timber the Treasure Dog.avi
Format : AVI
Format/Info : Audio Video Interleave
File size : 1.37 GiB
Duration : 1h 27mn
Overall bit rate : 2 250 Kbps
Writing application : VirtualDubMod 1.5.10.3 | www.virtualdub-fr.org || (build 2550/release)
Writing library : VirtualDubMod build 2550/release
Video
ID : 0
Format : MPEG-4 Visual
Format profile : Advanced Simple@L5
Format settings, BVOP : 2
Format settings, QPel : No
Format settings, GMC : No warppoints
Format settings, Matrix : Default (H.263)
Muxing mode : Packed bitstream
Codec ID : XVID
Codec ID/Hint : XviD
Duration : 1h 27mn
Bit rate : 2 049 Kbps
Width : 720 pixels
Height : 400 pixels
Display aspect ratio : 16:9
Frame rate : 23.976 (23976/1000) fps
Color space : YUV
Chroma subsampling : 4:2:0
Bit depth : 8 bits
Scan type : Progressive
Compression mode : Lossy
Bits/(Pixel*Frame) : 0.297
Stream size : 1.25 GiB (91%)
Writing library : XviD 66
Audio
ID : 1
Format : AC-3
Format/Info : Audio Coding 3
Mode extension : CM (complete main)
Format settings, Endianness : Big
Codec ID : 2000
Duration : 1h 27mn
Bit rate mode : Constant
Bit rate : 192 Kbps
Channel(s) : 2 channels
Channel positions : Front: L R
Sampling rate : 48.0 KHz
Frame rate : 31.250 fps (1536 spf)
Compression mode : Lossy
Stream size : 120 MiB (9%)
Alignment : Split accross interleaves
Interleave, duration : 42 ms (1.00 video frame)
Interleave, preload duratio : 500 ms

-

Скриншот c названием фильма

-
[Профиль] [ЛС]
Кто просматривает тему:

Форум Тема Автор Размер
Фильмы 2016 года Тимбер – говорящая собака / Timber the Treasure Dog (2016) WEB-DLRip | L2 достали все 1.37 GB
Показать сообщения:    

Текущее время: Сегодня 14:55

Часовой пояс: GMT



Вы не можете начинать темы
Вы не можете отвечать на сообщения
Вы не можете редактировать свои сообщения
Вы не можете удалять свои сообщения
Вы не можете голосовать в опросах
Вы не можете прикреплять файлы к сообщениям
Вы не можете скачивать файлы