Тигр жив / Tiger Zinda Hai (2017) HDRip 1080p | GreenРай Studio

 
Автор Сообщение

BOSS ®

Пол:

Стаж: 3 года 11 месяцев

Сообщений: 11883

Откуда: ODESSA



Награды: 22 (Подробнее)

Mega Seeder 3 (Количество: 1) Mega Releaser 2 (Количество: 1) Top Seeder 3 (Количество: 1)
Торрент-статистика

Создавать темы 19-Май-2018 06:36

[Цитировать]

Информация о фильме
Год выхода: 2017
Наименование: Тигр жив
Оригинальное наименование: Tiger Zinda Hai
Произведено: Индия
Жанр: боевик
Режиссер постановщик: Али Аббас Зафар
В главных ролях: Салман Кхан, Катрина Каиф, Садджад Делафруз, Энгэд Беди, Пареш Раваль, Пареш Пахуджа, Кумуд Мишра, Анупурия Гоенка
О фильме: В Ираке во время вооруженного конфликта между иракской армией и террористами ранен лидер террористов Абу Усман. Его доставляют в местный госпиталь и берут в заложники индийских и пакистанских медсестер. Кроме того, со дня на день должны казнить группу американских журналистов.
Когда ушедший на покой секретный агент индийской спецслужбы Тигр где-то в швейцарских Альпах голыми руками расправляется со стаей волков, родине снова нужна его помощь. Американцы согласились совершить авиаудар через неделю, поэтому у Тигра и его команды есть только 7 дней, чтобы вызволить заложников. Да и Зоя не может остаться в стороне - теперь индийские и пакистанские спецслужбы будут работать вместе.

Файл
Качество: HDRip 1080p
Видео данные: MKV, 1920x810 (2.40:1), 23.976 fps, 11300 Кбит/с
Аудио данные: AAC, 2 ch, 192 Кбит/с
Перевод: Любительский многоголосый (GreenРай Studio)
Продолжительность: 02:38:42

Медиаинфо

General
Unique ID : 305108343434199742960921647510242042065 (0xE589BABFDF2CE203809589DB39D9A0D1)
Complete name : E:ГРИНРАЙTiger.Zinda.Hai.2017.P.BDRip.1080p.mkv
Format : Matroska
Format version : Version 4 / Version 2
File size : 12.8 GiB
Duration : 2 h 38 min
Overall bit rate : 11.5 Mb/s
Encoded date : UTC 2018-05-17 15:47:05
Writing application : mkvmerge v21.0.0 ('Tardigrades Will Inherit The Earth') 64-bit
Writing library : libebml v1.3.5 + libmatroska v1.4.8
Video
ID : 1
Format : AVC
Format/Info : Advanced Video Codec
Format profile : High@L4.1
Format settings : CABAC / 1 Ref Frames
Format settings, CABAC : Yes
Format settings, RefFrames : 1 frame
Format settings, GOP : M=1, N=30
Codec ID : V_MPEG4/ISO/AVC
Duration : 2 h 38 min
Bit rate : 11.3 Mb/s
Width : 1 920 pixels
Height : 810 pixels
Display aspect ratio : 2.40:1
Frame rate mode : Constant
Frame rate : 23.976 (24000/1001) FPS
Color space : YUV
Chroma subsampling : 4:2:0
Bit depth : 8 bits
Scan type : Progressive
Bits/(Pixel*Frame) : 0.304
Stream size : 12.6 GiB (98%)
Language : English
Default : Yes
Forced : No
Audio
ID : 2
Format : AAC
Format/Info : Advanced Audio Codec
Format profile : LC
Codec ID : A_AAC-2
Duration : 2 h 38 min
Bit rate : 192 kb/s
Channel(s) : 2 channels
Channel positions : Front: L R
Sampling rate : 48.0 kHz
Frame rate : 46.875 FPS (1024 SPF)
Compression mode : Lossy
Stream size : 215 MiB (2%)
Language : English
Default : Yes
Forced : No
Внимание, имеется видео и аудио реклама от спонсора показа

Скриншоты

Релиз от:
[Профиль] [ЛС]
Кто просматривает тему:

Показать сообщения:    

Текущее время: Сегодня 15:05

Часовой пояс: GMT



Вы не можете начинать темы
Вы не можете отвечать на сообщения
Вы не можете редактировать свои сообщения
Вы не можете удалять свои сообщения
Вы не можете голосовать в опросах
Вы не можете прикреплять файлы к сообщениям
Вы не можете скачивать файлы