Технологии, которые нас меняют / DSKNECTD: Is Technology Changing Us? (Доминик Уайт / Dominic H. White) [2013, документальный, современные технологии, HDTV 1080i] VO (NOVAMEDIA)

 
Автор Сообщение

TorrentFilm ®

Пол:

Стаж: 2 года

Сообщений: 7741



Награды: Нет

Торрент-статистика

Создавать темы 26-Янв-2015 00:15

[Цитировать]

Технологии, которые нас меняют
DSKNECTD: Is Technology Changing Us?- Год выпуска: 2013
Страна: США
Студия: Internegative Films
Жанр: документальный, современные технологии
Продолжительность: 00:49:57
Перевод: Студийный (одноголосый закадровый)
Доп. инфо о переводе: Студия NOVAMEDIA по заказу компании Amedia TV, перевод Екатерины Ветлужских, текст читал Кирилл Туранский
Русские субтитры: нет
Режиссер: Доминик Уайт / Dominic H. White
Описание: Документальный фильм о том, как технологии изменили мир за последние 10 лет. Смартфоны, социальные медиа, виртуальные сообщества и онлайн-игры. Что ждет нас впереди? И стоит ли этого бояться?
Доп. информация: Amedia Premium HD
Награда: приз "Выбор режиссеров" за лучший документальный фильм Rincon International Film Festival, PR 2014.

Тип релиза: HDTV 1080i
Контейнер: MKV
Видео: AVC (H.264), 1920x1080 (16:9), 25 fps, ~6500 kbps avg, 0.128 bit/pixel
Аудио 1: MPEG Audio 2, 2 ch, 48 kHz, ~192.00 kbps avg - русский
Аудио 2: MPEG Audio 2, 2 ch, 48 kHz, ~192.00 kbps avg - английский

MediaInfo

ОбщееУникальный идентификатор : 236221861906317093990764091313817167807 (0xB1B6ACFD1004166786C145AC49E0A7BF)Полное имя : E:\My Torrents 2\[apreder]DSKNECTD(2013)DVB.mkvФормат : MatroskaВерсия формата : Version 2Размер файла : 2,50 ГбайтПродолжительность : 49 м.Общий поток : 7176 Кбит/секДата кодирования : UTC 2015-01-24 15:54:40Программа кодирования : mkvmerge v7.5.0 ('Glass Culture') 64bit built on Jan 4 2015 16:48:44Библиотека кодирования : libebml v1.3.1 + libmatroska v1.4.2
ВидеоИдентификатор : 3Формат : AVCФормат/Информация : Advanced Video CodecПрофиль формата : High@L4.0Параметр CABAC формата : ДаПараметр ReFrames формата : 4 кадраИдентификатор кодека : V_MPEG4/ISO/AVCПродолжительность : 49 м.Битрейт : 6649 Кбит/секШирина : 1920 пикселейВысота : 1080 пикселейСоотношение сторон : 16:9Режим частоты кадров : ПостоянныйЧастота кадров : 25,000 кадров/секСтандарт вещания : ComponentЦветовое пространство : YUVСубдискретизация насыщенности : 4:2:0Битовая глубина : 8 битТип развёртки : MBAFFПорядок развёртки : Верхнее поле первоеБит/(Пиксели*Кадры) : 0.128Размер потока : 2,32 Гбайт (93%)Default : ДаForced : НетОсновные цвета : BT.709Характеристики трансфера : BT.709Коэффициенты матрицы : BT.709colour_range : Limited
Аудио #1Идентификатор : 1Формат : MPEG AudioВерсия формата : Version 1Профиль формата : Layer 2Идентификатор кодека : A_MPEG/L2Идентификатор кодека/Подсказка : MP2Продолжительность : 49 м.Вид битрейта : ПостоянныйБитрейт : 192 Кбит/секКаналы : 2 каналаЧастота : 48,0 КГцМетод сжатия : С потерямиЗадержка видео : -10 мс.Размер потока : 68,6 Мбайт (3%)Язык : EnglishDefault : ДаForced : Нет
Аудио #2Идентификатор : 2Формат : MPEG AudioВерсия формата : Version 1Профиль формата : Layer 2Идентификатор кодека : A_MPEG/L2Идентификатор кодека/Подсказка : MP2Продолжительность : 49 м.Вид битрейта : ПостоянныйБитрейт : 192 Кбит/секКаналы : 2 каналаЧастота : 48,0 КГцМетод сжатия : С потерямиЗадержка видео : -10 мс.Размер потока : 68,6 Мбайт (3%)Язык : RussianDefault : НетForced : Нет

Скриншоты

Резервные скриншоты

-[2'076]
[Профиль] [ЛС]
Кто просматривает тему:

Форум Тема Автор Размер
Electronic music (Syntpop) [CD] Технология - Дискография (18 CD) - 1993-2011, FLAC (image+.cue), lossless sergej644 6.52 GB
BBC BBC: Повседневные чудеса / Everyday Miracles [серии 1 из 2] (Петер Леонард / Peter Leonard) [2014 г., Документальный, технологии, инновации, дизайн, путешествия, HDTVRip 720p] skorpionN 1.76 GB
Da Vinci Learning Da Vinci Learning: Формат 21 / NZZ Format [серии 1-29 из 30] (Gabriela Neuhays, Basil Gelpke, Ursula Bishof Scherer, Beat Rauch) [2006 г., Документальный, наука, изобретения, инн... skorpionN 12.24 GB
Программирование [Технопарк] Лекции Технопарка. 2 семестр. Java [2013] + Углублённое программирование на Java [2015] [2013-2015, RUS] sergej644 13.24 GB
Фантастика, фэнтези Елена Сухова | Оттенок техногенный (2015) [FB2] Garik014 1 MB
Разная литература Зибенайхер-Гелльвиг Э.Г., Штайгервальд Ш. - Ножи. Технология изготовления и материалы [2007, PDF] Garik014 101 MB
Компьютерная литература (Программирование) Мастер-класс - Esposito D. / Эспозито Д. - Introducing Microsoft ASP.NET 2.0 AJAX / Знакомство с технологией Microsoft ASP.NET 2.0 AJAX [2007, DjVu, RUS] + Code TorrentFilm 15 MB
Фантастика, фэнтези Михаил Сухоросов - Цикл - «Пришлые» (Книги 1-4) [2010-2011, Боевая фантастика, Техно-фэнтези, FB2] Garik014 6 MB
Показать сообщения:    

Текущее время: Сегодня 16:41

Часовой пояс: GMT



Вы не можете начинать темы
Вы не можете отвечать на сообщения
Вы не можете редактировать свои сообщения
Вы не можете удалять свои сообщения
Вы не можете голосовать в опросах
Вы не можете прикреплять файлы к сообщениям
Вы не можете скачивать файлы