Тетрадь смерти / Death Note (2006) [01-10 из 37] HDTVRip 720p от SDIncorporation | P

 
Автор Сообщение

Белочка ®

Пол:

Стаж: 5 лет 1 месяц

Сообщений: 2089



Награды: 1 (Подробнее)

Girls (Количество: 1)
Торрент-статистика

Создавать темы 14-Окт-2014 15:26

[Цитировать]

Информация о фильме
Русское название: Тетрадь смерти
Оригинальное название: Death Note
Страна: Япония
Студия: Madhouse
Год выпуска: 2006
Жанр: Детектив, Криминал, Драма, мистика
Перевод: Профессиональный многоголосый закадровый

Автор перевода: Mega-Anime
Режиссер: Араки Тэцуро
Работа над релизом:
Nod33Eset(retvil) [1-10]
69SexyMan [1-5]
StreetDespair [6-10]
Исходник: CCTV 2013 Год
Скачать: Сэмпл#1 и Сэмпл#2
О фильме:
Тетрадь смерти (яп. デスノート Дэсу Но:то, Death Note) — ставшая культовой японская манга, придуманная Цугуми Обой и нарисованная Такэси Обатой, а также выпущенные на её основе анимационные сериал и фильмы, игровые фильмы, лайт-новел и видеоигры.
В основу сюжета легла философская идея: «Можно ли добиться блага для одних людей путем убийств других?». Автор придумал оригинальную историю, в которой отражается суть того, что бы могло быть с миром, если бы человек мог безнаказанно убивать одних людей, чтобы сделать лучше жизнь других. Цугуми Ооба рассматривает реакцию как самого убийцы, его мотивы и желания, так и реакцию общества на действия убийцы.
Сюжет:
Лайт Ягами — лучший ученик Японии, сын полицейского, который с детства хотел пойти по стопам отца, чтобы искоренить преступность не только в Японии, но и во всём мире.
Однажды, когда одному из синигами (богов смерти) Рюку стало скучно, он подкинул Тетрадь смерти — совершенное орудие убийства — на Землю. Лайту, нашедшему тетрадь, выпал случай изменить мир быстро и безнаказанно. Он стал вершить своё правосудие: убивать преступников.
Торжество Лайта над преступностью было недолгим, ибо совсем скоро странными смертями преступников заинтересовался Интерпол и начал расследование, подключив к нему не только весь мир, но и самого востребованного детектива, всегда скрывающегося под псевдонимом L (Эл). L начинает настоящую войну с Лайтом, которому в это время уже дали прозвище Кира (латиницей яп. キラ, Kira — убийца). Противостояние гениев — лучшего ученика Японии с одной стороны и лучшего детектива в мире с другой — начинает историю «Тетради смерти».
Лайт не может совершать ошибки, потому что если его поймают, он не сможет вершить своё правосудие и получит смертный приговор. Его оппонент тоже не может сделать ни одной ошибки, потому что в противном случае Кира убьёт его. В это противостояние, к тому же, вмешиваются сверхъестественные силы в лице богов смерти, а также другие последователи Киры и сторонники L.-Продолжительность: 1-10 из 37 серий по ~00:25:00
Качество видео: HDTVRip 720p
Видеокодек: H.263
Формат: MKV
Битрейт видео: ~2748 Kbps
Размер кадра: 1280x720
Аудиокодек: AC3
Битрейт аудио: 192 kb/s & 128 kbps
Аудио #1: Русский ( 48 kHz, AC3 Dolby Digital, 2 channels, ~192 kbps) — Профессиональный многоголосый закадровый [Mega-Anime]
Аудио #2: Японский ( 48 kHz, MPEG , 2 channels, ~128 kbps) — Оригинал-

MI:

General
Unique ID : 245143700463056859129047299760443267218 (0xB86CF5974DE34E8A8D0E95EAD7729892)
Complete name : E:Death Note [720p] (Mega-Anime)1. Перерождение.mkv
Format : Matroska
Format version : Version 4 / Version 2
File size : 509 MiB
Duration : 22mn 44s
Overall bit rate : 3 131 Kbps
Movie name : Death Note Episode 1 [720p] (Mega-Anime) © SDIncorporation
Encoded date : UTC 2014-10-13 12:27:02
Writing application : mkvmerge v7.2.0 ('On Every Street') 64bit built on Sep 13 2014 15:52:10
Writing library : libebml v1.3.0 + libmatroska v1.4.1
DURATION : 00:22:44.928000000
NUMBER_OF_FRAMES : 56872
NUMBER_OF_BYTES : 21838848
_STATISTICS_WRITING_APP : mkvmerge v7.2.0 ('On Every Street') 64bit built on Sep 13 2014 15:52:10
_STATISTICS_WRITING_DATE_UTC : 2014-10-13 12:27:02
_STATISTICS_TAGS : BPS DURATION NUMBER_OF_FRAMES NUMBER_OF_BYTES
Video
ID : 1
Format : MPEG-4 Visual
Format profile : Simple@L1
Format settings, BVOP : No
Format settings, QPel : No
Format settings, GMC : No warppoints
Format settings, Matrix : Default (H.263)
Codec ID : V_MS/VFW/FOURCC / DX50
Codec ID/Hint : DivX 5
Duration : 22mn 44s
Bit rate : 2 748 Kbps
Width : 1 280 pixels
Height : 720 pixels
Display aspect ratio : 16:9
Frame rate mode : Constant
Frame rate : 30.000 fps
Color space : YUV
Chroma subsampling : 4:2:0
Bit depth : 8 bits
Scan type : Progressive
Compression mode : Lossy
Bits/(Pixel*Frame) : 0.099
Stream size : 447 MiB (88%)
Writing library : Lavc52.58.0
Default : Yes
Forced : No
Audio #1
ID : 2
Format : AC-3
Format/Info : Audio Coding 3
Mode extension : CM (complete main)
Format settings, Endianness : Big
Codec ID : A_AC3
Duration : 22mn 44s
Bit rate mode : Constant
Bit rate : 192 Kbps
Channel(s) : 2 channels
Channel positions : Front: L R
Sampling rate : 48.0 KHz
Bit depth : 16 bits
Compression mode : Lossy
Delay relative to video : -33ms
Stream size : 31.2 MiB (6%)
Title : Mega-Anime
Language : Russian
Default : Yes
Forced : No
Audio #2
ID : 3
Format : MPEG Audio
Format version : Version 1
Format profile : Layer 3
Mode : Joint stereo
Mode extension : MS Stereo
Codec ID : A_MPEG/L3
Codec ID/Hint : MP3
Duration : 22mn 44s
Bit rate mode : Constant
Bit rate : 128 Kbps
Channel(s) : 2 channels
Sampling rate : 48.0 KHz
Compression mode : Lossy
Delay relative to video : -33ms
Stream size : 20.8 MiB (4%)
Title : Japanese
Language : Japanese
Default : No
Forced : No

Список серий

01 - Перерождение
02 - Конфронтация
03 - Сделка
04 - Преследование
05 - Тактика
06 - Разрыв
07 - Облачное небо
08 - Взгляд
09 - Контакт
10 - Подозрение

Скриншоты






Время раздачи: С 8:00 до 22:00
Релиз от: © SDIncorporation By PowerTracker
[Профиль] [ЛС]
Кто просматривает тему:

Показать сообщения:    

Текущее время: Сегодня 20:00

Часовой пояс: GMT



Вы не можете начинать темы
Вы не можете отвечать на сообщения
Вы не можете редактировать свои сообщения
Вы не можете удалять свои сообщения
Вы не можете голосовать в опросах
Вы не можете прикреплять файлы к сообщениям
Вы не можете скачивать файлы