Тетрадь смерти: Зажги новый мир / Death Note: Light Up the New World (2016) WEBRip 720p | L

 
Автор Сообщение

BOSS ®

Пол:

Стаж: 3 года 2 месяца

Сообщений: 8593

Откуда: ODESSA



Награды: 22 (Подробнее)

Mega Releaser 1 (Количество: 1) Mega Seeder 2 (Количество: 1) Top Keeper 4 (Количество: 1)
Торрент-статистика

Создавать темы 25-Апр-2017 04:40

[Цитировать]

Информация о фильме
Название: Тетрадь смерти: Зажги новый мир
Оригинальное название: Death Note: Light Up the New World
Год выхода: 2016
Жанр: триллер, драма, криминал
Режиссер: Синсуке Сато
В ролях: Масахиро Хигасидэ, Сосукэ Икэмацу, Масаки Суда, Эрика Тода, Рина Каваэи, Мина Фудзи, Тацуя Фудзивара, Мацуяма Кэнити, Ноэмиэ Накаи, Сергей Куваев
О фильме:
Спустя десять лет после известных трагических событий синдром Киры возвращается на планету. После длинной серии смертей на Уолл-стрит и в Сибуе спецслужбы начинают догадываться, что Тетрадь Смерти снова с нами. Агент Цукуру Мисима и его команда узнают, что тетрадей теперь шесть. И стоит за этим один конкретный человек, решивший возродить Лайта Ягами.

Страна: Япония
Продолжительность: 02:16:24
Перевод: Любительский (многоголосый, закадровый) | Колобок
Файл
Кодек: x.264
Качество: WEBRip 720p
Видео: AVC, 1280x536 (2.40:1), 23.976 fps, 3 822 Kbps (0.232 bit/pixel)
Звук: AC-3, 48.0 KHz, 2 ch, 384 Kbps, CBR
Субтитры: Корейские (вшитые)

MI

Общее
Уникальный идентификатор : 178573008449043791510114287587970677350 (0x8657E9117D8D07A9B8DC14CFF7D27A66)
Полное имя : Death.Note.Light.up.the.New.World.2016.P.WEBRip.72OP_KOSHARA.mkv
Формат : Matroska
Версия формата : Version 2
Размер файла : 4,01 Гбайт
Продолжительность : 2 ч. 16 м.
Режим общего битрейта : Переменный
Общий поток : 4208 Кбит/сек
Дата кодирования : UTC 2017-04-23 18:42:26
Программа кодирования : mkvmerge v8.3.0 ('Over the Horizon') 64bit
Библиотека кодирования : libebml v1.3.1 + libmatroska v1.4.2
Видео
Идентификатор : 1
Формат : AVC
Формат/Информация : Advanced Video Codec
Профиль формата : High@L4.1
Параметр CABAC формата : Да
Параметр ReFrames формата : 12 кадров
Идентификатор кодека : V_MPEG4/ISO/AVC
Продолжительность : 2 ч. 16 м.
Вид битрейта : Переменный
Битрейт : 3822 Кбит/сек
Максимальный битрейт : 4300 Кбит/сек
Ширина : 1280 пикселей
Высота : 536 пикселей
Соотношение сторон : 2,40:1
Режим частоты кадров : Постоянный
Частота кадров : 23,976 (24000/1001) кадра/сек
Стандарт вещания : Component
Цветовое пространство : YUV
Субдискретизация насыщенности : 4:2:0
Битовая глубина : 8 бит
Тип развёртки : Прогрессивная
Бит/(Пиксели*Кадры) : 0.232
Размер потока : 3,64 Гбайт (91%)
Default : Да
Forced : Нет
Цветовой диапазон : Limited
Основные цвета : BT.709
Характеристики трансфера : BT.709
Коэффициенты матрицы : BT.709
Аудио
Идентификатор : 2
Формат : AC-3
Формат/Информация : Audio Coding 3
Расширение режима : CM (complete main)
Параметр Endianness формата : Big
Идентификатор кодека : A_AC3
Продолжительность : 2 ч. 16 м.
Вид битрейта : Постоянный
Битрейт : 384 Кбит/сек
Каналы : 2 канала
Расположение каналов : Front: L R
Частота : 48,0 КГц
Частота кадров : 31,250 кадров/сек (1536 spf)
Битовая глубина : 16 бит
Метод сжатия : С потерями
Размер потока : 375 Мбайт (9%)
Default : Да
Forced : Нет

Скриншоты

[Профиль] [ЛС]
Показать сообщения:    

Текущее время: Сегодня 16:54

Часовой пояс: GMT



Вы не можете начинать темы
Вы не можете отвечать на сообщения
Вы не можете редактировать свои сообщения
Вы не можете удалять свои сообщения
Вы не можете голосовать в опросах
Вы не можете прикреплять файлы к сообщениям
Вы не можете скачивать файлы