Террорист / Shoot on Sight (Джаг Мандра / Jag Mundhra) [2007, США, Великобритания, триллер, драма, криминал, HDRip] MVO

 
Автор Сообщение

sergej644 ®

Пол:

Стаж: 4 года 11 месяцев

Сообщений: 6037

Откуда: Soviet Union



Награды: Нет

Торрент-статистика

Создавать темы 04-Окт-2014 12:59

[Цитировать]

Террорист / Shoot on Sight
Страна: США, Великобритания
Жанр: триллер, драма, криминал
Год выпуска: 2007
Продолжительность: 01:50:07
Перевод: Профессиональный (многоголосый закадровый)
Cубтитры: нет

Режиссер: Джаг Мандра / Jag Mundhra
В ролях: Насируддин Шах, Грета Скакки, Гюльшан Гроувер, Ом Пури, Стефен Грейф, Лайла Руасс
Описание: Полицейский из особого отдела должен ликвидировать подозреваемых террористов, осуществивших теракт в Лондоне. Его задание осложняется тем, что отрядом спецназа была допущена ошибка, в результате которой убит невинный человек. А на самого героя падает тень подозрения в сотрудничестве с экстремистами…
Качество видео: HDRip
Формат видео: AVI
Видео: 640x352 (1.82:1), 23.976 fps, XviD build 73 ~808 kbps avg, 0.15 bit/pixel
Аудио: 48 kHz, MPEG Layer 3, 2 ch, ~128.00 kbps avg

MediaInfo

Общее
Полное имя : J:\Shoot.on.Sight.2007.hdrip_[745]_[teko].avi
Формат : AVI
Формат/Информация : Audio Video Interleave
Размер файла : 745 Мбайт
Продолжительность : 1 ч. 50 м.
Общий поток : 946 Кбит/сек
Программа кодирования : VirtualDubMod 1.5.10.3 | www.virtualdub-fr.org || (build 2550/release)
Библиотека кодирования : VirtualDubMod build 2550/release
Видео
Идентификатор : 0
Формат : MPEG-4 Visual
Профиль формата : Advanced Simple@L5
Параметр BVOP формата : 2
Параметр QPel формата : Нет
Параметр GMC формата : Без точки перехода
Параметр матрицы формата : Выборочная
Идентификатор кодека : XVID
Идентификатор кодека/Подсказка : XviD
Продолжительность : 1 ч. 50 м.
Битрейт : 808 Кбит/сек
Ширина : 640 пикселей
Высота : 352 пикселя
Соотношение сторон : 16:9
Частота кадров : 23,976 кадра/сек
Цветовое пространство : YUV
Субдискретизация насыщенности : 4:2:0
Битовая глубина : 8 бит
Тип развёртки : Прогрессивная
Метод сжатия : С потерями
Бит/(Пиксели*Кадры) : 0.150
Размер потока : 637 Мбайт (85%)
Библиотека кодирования : XviD 73
Аудио
Идентификатор : 1
Формат : MPEG Audio
Версия формата : Version 1
Профиль формата : Layer 3
Режим : Joint stereo
Расширение режима : MS Stereo
Идентификатор кодека : 55
Идентификатор кодека/Подсказка : MP3
Продолжительность : 1 ч. 50 м.
Вид битрейта : Постоянный
Битрейт : 128 Кбит/сек
Каналы : 2 канала
Частота : 48,0 КГц
Метод сжатия : С потерями
Размер потока : 101 Мбайт (14%)
Выравнивание : Соединение по промежуткам
Продолжительность промежутка : 42 мс. (1,00 видеокадр)
Время предзагрузки промежутка : 504 мс.
--
[Профиль] [ЛС]

Создавать темы 06-Авг-2015 23:06 (спустя 10 месяцев 2 дня)

Топик был перенесен из форума Фильмы до 2014 года в форум Фильмы до 2012 года
sergej644
 
Показать сообщения:    

Текущее время: Сегодня 15:59

Часовой пояс: GMT



Вы не можете начинать темы
Вы не можете отвечать на сообщения
Вы не можете редактировать свои сообщения
Вы не можете удалять свои сообщения
Вы не можете голосовать в опросах
Вы не можете прикреплять файлы к сообщениям
Вы не можете скачивать файлы