Терминатор 2: Судный день / Terminator 2: Judgment Day (1991) HDRip| P | Director's Cut

 
Автор Сообщение

sergej644 ®

Пол:

Стаж: 4 года 11 месяцев

Сообщений: 6038

Откуда: Soviet Union



Награды: Нет

Торрент-статистика

Создавать темы 07-Июл-2015 22:25

[Цитировать]


Информация о фильме
Название: Терминатор 2: Судный день
Оригинальное название: Terminator 2: Judgment Day
Производство: США, Франция / Carolco Pictures, Pacific Western, Lightstorm Entertainment
Жанр: Боевик, Фантастика
Продолжительность: 02:33:25
Перевод: Профессиональный (многоголосый, закадровый) Киномания
Субтитры: отсутствуют
Режиссер: Джеймс Кэмерон
Актеры: Арнольд Шварценеггер, Линда Хэмилтон, Эдвард Ферлонг, Роберт Патрик, Эрл Боэн, Джо Мортон, С. Эпата Меркерсон, Кастуло Герра, Дэнни Кукси, Дженетт Голдстин
Описание:
Война роботов и людей продолжается. Казалось, что человечество обречено на полное уничтожение. Но благодаря своему лидеру Джону Коннору у сопротивления появляется шанс победить. Не имея возможности убить Джона в реальном времени, роботы отправляют в прошлое свою самую совершенную разработку - терминатора-убийцу из жидкого металла, способного принимать любое обличье.
Теперь, чтобы победить в будущем, юному Джону Коннору надо выжить в настоящем. Его шансы существенно повышаются, когда на помощь приходит перепрограммированный сопротивлением терминатор предыдущего поколения. Оба робота вступают в смертельный бой, от исхода которого зависит судьба человечества.

Файл
Качество: HDRip
Видео: MPEG4, XviD, 688x288 (2.35:1), 23.976 fps, 1 161 Kbps (0.244 bit/pixel)
Аудио: AC3, 2 ch, 192 Kbps, CBR

Mediainfo:

Формат : AVI
Формат/Информация : Audio Video Interleave
Размер файла : 1,46 Гбайт
Продолжительность : 2 ч. 33 м.
Общий поток : 1362 Кбит/сек
Программа кодирования : VirtualDubMod 1.5.10.3 | www.virtualdub-fr.org || (build 2550/release)
Библиотека кодирования : VirtualDubMod build 2550/release
Видео
Идентификатор : 0
Формат : MPEG-4 Visual
Профиль формата : Advanced Simple@L5
Параметр BVOP формата : 2
Параметр QPel формата : Нет
Параметр GMC формата : Без точки перехода
Параметр матрицы формата : Выборочная
Идентификатор кодека : XVID
Идентификатор кодека/Подсказка : XviD
Продолжительность : 2 ч. 33 м.
Битрейт : 1161 Кбит/сек
Ширина : 688 пикселей
Высота : 288 пикселей
Соотношение сторон : 2,40:1
Частота кадров : 23,976 кадра/сек
Цветовое пространство : YUV
Субдискретизация насыщенности : 4:2:0
Битовая глубина : 8 бит
Тип развёртки : Прогрессивная
Метод сжатия : С потерями
Бит/(Пиксели*Кадры) : 0.244
Размер потока : 1,24 Гбайт (85%)
Библиотека кодирования : XviD 73
Аудио
Идентификатор : 1
Формат : AC-3
Формат/Информация : Audio Coding 3
Расширение режима : CM (complete main)
Параметр Endianness формата : Big
Идентификатор кодека : 2000
Продолжительность : 2 ч. 33 м.
Вид битрейта : Постоянный
Битрейт : 192 Кбит/сек
Каналы : 6 каналов
Расположение каналов : Front: L C R, Side: L R, LFE
Частота : 48,0 КГц
Битовая глубина : 16 бит
Метод сжатия : С потерями
Размер потока : 210 Мбайт (14%)
Выравнивание : Разделение по промежуткам
Продолжительность промежутка : 42 мс. (1,00 видеокадр)
Время предзагрузки промежутка : 500 мс.

Скриншоты


[Профиль] [ЛС]
Показать сообщения:    

Текущее время: Сегодня 12:34

Часовой пояс: GMT



Вы не можете начинать темы
Вы не можете отвечать на сообщения
Вы не можете редактировать свои сообщения
Вы не можете удалять свои сообщения
Вы не можете голосовать в опросах
Вы не можете прикреплять файлы к сообщениям
Вы не можете скачивать файлы