Терминатор / The Terminator (1984) BDRip 1080p

 
Автор Сообщение

BOSS ®

Пол:

Стаж: 2 года 11 месяцев

Сообщений: 7144

Откуда: ODESSA



Награды: 20 (Подробнее)

Mega Seeder 3 (Количество: 1) Mega Seeder 2 (Количество: 1) Mega Seeder 5 (Количество: 1)
Торрент-статистика

Создавать темы 28-Июн-2017 13:50

[Цитировать]

Информация о фильме
Название: Терминатор
Оригинальное название: The Terminator
Год выхода: 1984
Жанр: фантастика, боевик
Режиссер: Джеймс Кэмерон
В ролях: Арнольд Шварценеггер, Майкл Бьен, Линда Хэмилтон, Пол Уинфилд, Лэнс Хенриксен, Бесс Мотта, Эрл Боэн, Рик Россович, Дик Миллер, Шоун Шеппс
О фильме: В центре сюжета — противостояние солдата Кайла Риза и киборга-терминатора, прибывших в 1984-ый год из пост-апокалиптического будущего, где миром правят машины-убийцы, а человечество находится на грани вымирания. Цель киборга: убить девушку по имени Сара Коннор, чей ещё нерождённый сын к 2029 году выиграет войну человечества с машинами. Цель солдата Кайла Риза: спасти Сару и остановить Терминатора любой ценой.

Выпущено: Hemdale Film
Продолжительность: 01:47:13
Перевод: Профессиональный (многоголосый, закадровый) (лицензия)
Файл
Кодек: x264
Качество: BDRip (источник: Blu-ray Disc)
Видео: 1920x1040 (16:9), 23.976 fps, 5390 kbps
Звук: 48 kHz, AC-3, 6 ch, 448 kbps
Субтитры: Русские, Английские
Скачать: сэмпл
Скриншоты

MI

Общее
Уникальный идентификатор : 205320091271850891838374974646158888266 (0x9A773610F8ED2BF8BAE6F946EA4C0D4A)
Полное имя : The.Terminator.1984.BDRip.1080p.Rus.mkv
Формат : Matroska
Версия формата : Version 2
Размер файла : 4,37 Гбайт
Продолжительность : 1 ч. 47 м.
Общий поток : 5837 Кбит/сек
Дата кодирования : UTC 2011-08-09 07:04:56
Программа кодирования : mkvmerge v4.0.0 ('The Stars were mine') сборка от Jun 6 2010 16:18:42
Библиотека кодирования : libebml v1.0.0 + libmatroska v1.0.0
Видео
Идентификатор : 1
Формат : AVC
Формат/Информация : Advanced Video Codec
Профиль формата : High@L4.1
Параметр CABAC формата : Да
Параметр ReFrames формата : 4 кадра
Идентификатор кодека : V_MPEG4/ISO/AVC
Продолжительность : 1 ч. 47 м.
Битрейт : 5390 Кбит/сек
Ширина : 1920 пикс.
Высота : 1040 пикс.
Соотношение сторон : 16:9
Частота кадров : 23,976 кадр/сек
Цветовое пространство : YUV
Подвыборка цветности : 4:2:0
Битовая глубина : 8 бит
Тип развёртки : Прогрессивная
Бит/(Пиксели*Кадры) : 0.113
Размер потока : 3,95 Гбайт (90%)
Библиотека кодирования : x264 core 116 r2044 392e762
Настройки программы : cabac=1 / ref=4 / deblock=1:-1:-1 / analyse=0x3:0x133 / me=umh / subme=11 / psy=1 / psy_rd=1.00:0.10 / mixed_ref=1 / me_range=32 / chroma_me=1 / trellis=2 / 8x8dct=1 / cqm=0 / deadzone=21,11 / fast_pskip=0 / chroma_qp_offset=-3 / threads=12 / sliced_threads=0 / nr=0 / decimate=1 / interlaced=0 / bluray_compat=0 / constrained_intra=0 / bframes=5 / b_pyramid=2 / b_adapt=2 / b_bias=0 / direct=3 / weightb=1 / open_gop=0 / weightp=2 / keyint=250 / keyint_min=23 / scenecut=40 / intra_refresh=0 / rc_lookahead=60 / rc=2pass / mbtree=1 / bitrate=5390 / ratetol=1.0 / qcomp=0.60 / qpmin=0 / qpmax=69 / qpstep=4 / cplxblur=20.0 / qblur=0.5 / ip_ratio=1.40 / aq=1:1.00
Язык : English
Аудио
Идентификатор : 2
Формат : AC-3
Формат/Информация : Audio Coding 3
Расширение режима : CM (complete main)
Идентификатор кодека : A_AC3
Продолжительность : 1 ч. 47 м.
Вид битрейта : Постоянный
Битрейт : 448 Кбит/сек
Каналы : 6 каналов
Расположение каналов : Front: L C R, Side: L R, LFE
Частота : 48,0 КГц
Битовая глубина : 16 бит
Метод сжатия : С потерями
Размер потока : 344 Мбайт (8%)
Язык : Russian
Текст #1
Идентификатор : 3
Формат : UTF-8
Идентификатор кодека : S_TEXT/UTF8
Идентификатор кодека/Информация : UTF-8 Plain Text
Язык : Russian
Текст #2
Идентификатор : 4
Формат : UTF-8
Идентификатор кодека : S_TEXT/UTF8
Идентификатор кодека/Информация : UTF-8 Plain Text
Язык : English
Меню
00:00:00.000 : :Chapter 01
00:06:23.924 : :Chapter 02
00:13:38.233 : :Chapter 03
00:15:04.737 : :Chapter 04
00:22:42.528 : :Chapter 05
00:29:42.698 : :Chapter 06
00:38:40.026 : :Chapter 07
00:41:18.101 : :Chapter 08
00:47:39.398 : :Chapter 09
00:54:34.480 : :Chapter 10
01:03:46.613 : :Chapter 11
01:09:29.122 : :Chapter 12
01:17:11.710 : :Chapter 13
01:26:17.631 : :Chapter 14
01:32:12.277 : :Chapter 15
01:36:07.762 : :Chapter 16
[Профиль] [ЛС]
Показать сообщения:    

Текущее время: Сегодня 04:22

Часовой пояс: GMT



Вы не можете начинать темы
Вы не можете отвечать на сообщения
Вы не можете редактировать свои сообщения
Вы не можете удалять свои сообщения
Вы не можете голосовать в опросах
Вы не можете прикреплять файлы к сообщениям
Вы не можете скачивать файлы