Терминатор: Да придёт спаситель / Terminator Salvation (МакДжи / McG) [2009, США, Германия, Великобритания, Италия, фантастика, боевик, триллер, DVDRip] [Театральная версия] [Full Screen] Dub

 
Автор Сообщение

TorrentFilm ®

Пол:

Стаж: 2 года

Сообщений: 7741



Награды: Нет

Торрент-статистика

Создавать темы 18-Июн-2015 14:22

[Цитировать]

Терминатор: Да придёт спасительTerminator Salvation- Страна: США, Германия, Великобритания, Италия
Жанр: фантастика, боевик, триллер
Год выпуска: 2009
Продолжительность: 01:54:35-Перевод: Профессиональный (полное дублирование)
Режиссер: МакДжи / McG
В ролях: Кристиан Бэйл (John Connor), Сэм Уортингтон (Marcus Wright), Антон Ельчин (Kyle Reese), Мун Бладгуд (Blair Williams), Брайс Даллас Ховард (Kate Connor), Коммон (Barnes), Джейн Александр (Virginia), Майкл Айронсайд (General Ashdown), Иван Г’Вера (General Losenko), Крис Браунинг (Morrison), Хелена Бонем Картер (Dr. Serena Kogan), Джадагрейс (Star)-Описание: 2018 год. В мире наступила война с машинами. Джон Коннор — человек, чья судьба — возглавить Сопротивление электронному мозгу Скайнет и армии Терминаторов. Но в будущее, с верой в которое он возвращен, вклинивается таинственный Маркус Райт: незнакомец, чьи последние воспоминания рисуют камеру смертников.-
MPAA: PG-13 - Детям до 13 лет просмотр не желателен-Качество: DVDRip
Контейнер: AVI
Видео: 704x528 (1.33:1), 23.976 fps, XviD build 65 ~2271 kbps avg, 0.26 bit/pixel
Аудио: 48 kHz, AC3 Dolby Digital, 3/2 (L,C,R,l,r) + LFE ch, ~448.00 kbps avg-СЭМПЛ - https://yadi.sk/i/qLv9CwSyhDAQK-

MediaInfo

General
Complete name : E:\Movies\T4.Salvation.2009.TC.FS.DVDRip.Dub.avi
Format : AVI
Format/Info : Audio Video Interleave
Format profile : OpenDML
File size : 2.18 GiB
Duration : 1h 54mn
Overall bit rate : 2 727 Kbps
Writing application : VirtualDubMod 1.5.10.2 (build 2542/release)
Writing library : VirtualDubMod build 2542/release
Video
ID : 0
Format : MPEG-4 Visual
Format profile : Advanced Simple@L5
Format settings, BVOP : 1
Format settings, QPel : No
Format settings, GMC : No warppoints
Format settings, Matrix : Custom
Codec ID : XVID
Codec ID/Hint : XviD
Duration : 1h 54mn
Bit rate : 2 267 Kbps
Width : 704 pixels
Height : 528 pixels
Display aspect ratio : 4:3
Frame rate : 23.976 fps
Color space : YUV
Chroma subsampling : 4:2:0
Bit depth : 8 bits
Scan type : Progressive
Compression mode : Lossy
Bits/(Pixel*Frame) : 0.254
Stream size : 1.81 GiB (83%)
Writing library : XviD 65
Audio
ID : 1
Format : AC-3
Format/Info : Audio Coding 3
Mode extension : CM (complete main)
Format settings, Endianness : Big
Codec ID : 2000
Duration : 1h 54mn
Bit rate mode : Constant
Bit rate : 448 Kbps
Channel(s) : 6 channels
Channel positions : Front: L C R, Side: L R, LFE
Sampling rate : 48.0 KHz
Compression mode : Lossy
Stream size : 367 MiB (16%)
Alignment : Split accross interleaves
Interleave, duration : 42 ms (1.00 video frame)
Interleave, preload duration : 500 ms

Скриншоты

Сравненияhttp://torrentfilm.net/forum/viewtopic.php?t=2453818 http://screenshotcomparison.com/comparison/130891/picture:0
http://torrentfilm.net/forum/viewtopic.php?t=4480955 http://screenshotcomparison.com/comparison/130892/picture:0
[Профиль] [ЛС]

Создавать темы 06-Авг-2015 22:29 (спустя 1 месяц 18 дней)

Топик был перенесен из форума Фильмы до 2014 года в форум Фильмы до 2012 года
sergej644
 

Создавать темы 12-Июн-2016 08:49 (спустя 11 месяцев 23 дня)

Топик был перенесен из форума Фильмы 2011 года в форум Фильмы 2009 года
Russian Mafia
 
Показать сообщения:    

Текущее время: Сегодня 22:42

Часовой пояс: GMT



Вы не можете начинать темы
Вы не можете отвечать на сообщения
Вы не можете редактировать свои сообщения
Вы не можете удалять свои сообщения
Вы не можете голосовать в опросах
Вы не можете прикреплять файлы к сообщениям
Вы не можете скачивать файлы