Терминатор: Да придёт спаситель / Terminator Salvation (МакДжи / McG) [2009, США, Германия, Великобритания, Италия, фантастика, боевик, триллер, драма, SATRip] [Театральная версия (Full Screen)] 4x AVO (Гаврилов, Володарский, Горчаков, Сербин)

 
Автор Сообщение

TorrentFilm ®

Пол:

Стаж: 2 года

Сообщений: 7741



Награды: Нет

Торрент-статистика

Создавать темы 11-Фев-2015 00:01

[Цитировать]

Терминатор: Да придёт спаситель / Терминатор 4: Спасение / Terminator Salvation Страна: США, Германия, Великобритания, Италия
Жанр: фантастика, боевик, триллер, драма
Год выпуска: 2009
Продолжительность: 01:44:53
Перевод 1: Авторский (одноголосый закадровый) Андрей Гаврилов
Перевод 2: Авторский (одноголосый закадровый) Леонид Володарский
Перевод 3: Авторский (одноголосый закадровый) Василий Горчаков
Перевод 4: Авторский (одноголосый закадровый) Юрий Сербин
Cубтитры: нет
Режиссер: МакДжи / McG
В ролях: Кристиан Бэйл, Сэм Уортингтон, Мун Бладгуд, Хелена Бонем Картер, Антон Ельчин, Джадагрейс, Брайс Даллас Ховард, Коммон, Джейн Александр, Майкл Айронсайд
Описание: 2018 год. В мире наступила война с машинами. Джон Коннор — человек, чья судьба — возглавить Сопротивление электронному мозгу Скайнет и армии Терминаторов. Но в будущее, с верой в которое он возвращен, вклинивается таинственный Маркус Райт: незнакомец, чьи последние воспоминания рисуют камеру смертников.
Коннор должен понять, кто такой этот Маркус и с какой целью пожаловал к людям. И на фоне подготовки Скайнетом решающего удара, Коннор и Райт отправляются в путешествие, приводящее их в самую сердцевину взбунтовавшейся операционной системы, где открывается ужасная тайна, кроющаяся за потенциальным уничтожением человечества.

Качество видео: SATRip спасибо allecs2010
Формат видео: AVI
Видео кодек: XviD
Аудио кодек: AC3
Видео: 704x512 (1.38:1), 25 fps, XviD build 65 ~1787 kbps avg, 0.20 bit/pixel
Аудио#1: 48 kHz, AC3 Dolby Digital, 2/0 (L,R) ch, ~192 kbps Гаврилов
Аудио#2: 48 kHz, AC3 Dolby Digital, 2/0 (L,R) ch, ~192 kbps Володарский - отдельно
Аудио#3: 48 kHz, AC3 Dolby Digital, 2/0 (L,R) ch, ~192 kbps Горчаков - отдельно
Аудио#4: 48 kHz, AC3 Dolby Digital, 2/0 (L,R) ch, ~192 kbps Сербин - отдельно

Сравнение с 2,37:1



Спасибо

За дорогу Володарского большое спасибо Wolf_Larsen, за остальные дороги, огромное спасибо всем причастным

MediaInfo

Полное имя : Терминатор 4 FS\Терминатор Да придет спаситель TFSVersion.avi
Формат : AVI
Формат/Информация : Audio Video Interleave
Размер файла : 1,46 Гбайт
Продолжительность : 1 ч. 44 м.
Общий поток : 1989 Кбит/сек
Программа кодирования : VirtualDubMod 1.5.10.2 (build 2540/release)
Библиотека кодирования : VirtualDubMod build 2540/release
Видео
Идентификатор : 0
Формат : MPEG-4 Visual
Профиль формата : Advanced Simple@L5
Параметр BVOP формата : 1
Параметр QPel формата : Нет
Параметр GMC формата : Без точки перехода
Параметр матрицы формата : Выборочная
Идентификатор кодека : XVID
Идентификатор кодека/Подсказка : XviD
Продолжительность : 1 ч. 44 м.
Битрейт : 1787 Кбит/сек
Ширина : 704 пикселя
Высота : 512 пикселей
Соотношение сторон : 1,375
Частота кадров : 25,000 кадров/сек
Цветовое пространство : YUV
Субдискретизация насыщенности : 4:2:0
Битовая глубина : 8 бит
Тип развёртки : Прогрессивная
Метод сжатия : С потерями
Бит/(Пиксели*Кадры) : 0.198
Размер потока : 1,31 Гбайт (90%)
Библиотека кодирования : XviD 65
Аудио
Идентификатор : 1
Формат : AC-3
Формат/Информация : Audio Coding 3
Расширение режима : CM (complete main)
Параметр Endianness формата : Big
Идентификатор кодека : 2000
Продолжительность : 1 ч. 44 м.
Вид битрейта : Постоянный
Битрейт : 192 Кбит/сек
Каналы : 2 канала
Расположение каналов : Front: L R
Частота : 48,0 КГц
Битовая глубина : 16 бит
Метод сжатия : С потерями
Размер потока : 144 Мбайт (10%)
Выравнивание : Разделение по промежуткам
Продолжительность промежутка : 40 мс. (1,00 видеокадр)
Время предзагрузки промежутка : 500 мс.

Скриншоты

[Профиль] [ЛС]

Создавать темы 06-Авг-2015 22:44 (спустя 5 месяцев 23 дня)

Топик был перенесен из форума Фильмы до 2014 года в форум Фильмы до 2012 года
sergej644
 

Создавать темы 12-Июн-2016 08:48 (спустя 1 год 4 месяца)

Топик был перенесен из форума Фильмы 2011 года в форум Фильмы 2009 года
Russian Mafia
 
Показать сообщения:    

Текущее время: Сегодня 08:11

Часовой пояс: GMT



Вы не можете начинать темы
Вы не можете отвечать на сообщения
Вы не можете редактировать свои сообщения
Вы не можете удалять свои сообщения
Вы не можете голосовать в опросах
Вы не можете прикреплять файлы к сообщениям
Вы не можете скачивать файлы