Терминатор: Генезис / Terminator Genisys (Алан Тейлор / Alan Taylor) [2015, США, Фантастика, боевик, триллер, BDRip-AVC] Dub + Original (Eng) + Subs (Rus, Eng)

 
Автор Сообщение

TorrentFilm ®

Пол:

Стаж: 2 года

Сообщений: 7741



Награды: Нет

Торрент-статистика

Создавать темы 15-Окт-2015 00:09

[Цитировать]

Терминатор: Генезис / Terminator Genisys
«Судьба переписана»
- Год выпуска: 2015
Выпущено: США / Paramount Pictures, Skydance Productions
Жанр: фантастика, боевик, триллер
Продолжительность: 02:05:43
Перевод: Профессиональный (дублированный) Line*
Cубтитры: Русские (Данис Нурмухаметов), Английские
Оригинальная аудиодорожка: Английская
Навигация по главам: Есть (19 глав)-Режиссер:
Алан Тейлор / Alan Taylor-В ролях:
Арнольд Шварценеггер (Guardian), Джейсон Кларк (John Connor), Эмилия Кларк (Sarah Connor), Джай Кортни (Kyle Reese), Дж.К. Симмонс (O'Brien), Дайо Окенийи (Danny Dyson), Мэтт Смит (Alex), Кортни Б. Вэнс (Miles Dyson), Ли Бён Хон (Cop / T-1000), Майкл Глэдис (Lt. Matias)-Описание:
Когда Джон Коннор, лидер сопротивления, посылает сержанта Кайла Риза назад в 1984 год, чтобы защитить Сару Коннор и спасти будущее, неожиданный поворот событий создает разлом во времени. Сержант Риз оказывается в новой, незнакомой версии прошлого, где он встречает неожиданных союзников, в том числе Терминатора, новых опасных врагов, и новую миссию: изменить будущее…-Релиз групп | | IMDB | КиноПоиск | Сэмпл |-Тип релиза: BDRip-AVC [Terminator.Genisys.2015.1080p.BluRay.AVC.TrueHD.7.1.Atmos-RARBG]
Контейнер: MKV
Видео: 1088x456 (2.40:1), 23.976 fps, x264 ~4080 kbps avg, 0.343 bit/pixel
Аудио #1: 48 kHz, AC3 Dolby Digital, 3/2 (L,C,R,l,r) + LFE ch, ~448.00 kbps avg (RUS)
Аудио #2: 48 kHz, AC3 Dolby Digital, 3/2 (L,C,R,l,r) + LFE ch, ~448.00 kbps avg (ENG)
-

Скриншоты

MediaInfo

General
Complete name                            : D:\Terminator_Genezis_2015_BDRip-AVC_Line_by_Dalemake.mkv
Format                                   : Matroska
Format version                           : Version 4 / Version 2
File size                                : 4.37 GiB
Duration                                 : 2h 5mn
Overall bit rate                         : 4 978 Kbps
Encoded date                             : UTC 2015-10-04 06:55:57
Writing application                      : mkvmerge v6.1.0 ('Old Devil') built on Mar  4 2013 09:10:42
Writing library                          : libebml v1.3.0 + libmatroska v1.4.0
Video
ID                                       : 1
Format                                   : AVC
Format/Info                              : Advanced Video Codec
Format profile                           : High@L4.1
Format settings, CABAC                   : Yes
Format settings, ReFrames                : 14 frames
Codec ID                                 : V_MPEG4/ISO/AVC
Duration                                 : 2h 5mn
Bit rate                                 : 4 080 Kbps
Width                                    : 1 088 pixels
Height                                   : 456 pixels
Display aspect ratio                     : 2.40:1
Frame rate mode                          : Constant
Frame rate                               : 23.976 fps
Color space                              : YUV
Chroma subsampling                       : 4:2:0
Bit depth                                : 8 bits
Scan type                                : Progressive
Bits/(Pixel*Frame)                       : 0.343
Stream size                              : 3.50 GiB (80%)
Writing library                          : x264 core 130 r2273 b3065e6
Encoding settings                        : cabac=1 / ref=14 / deblock=1:-1:-1 / analyse=0x3:0x113 / me=umh / subme=11 / psy=1 / psy_rd=1.00:0.00 / mixed_ref=1 / me_range=48 / chroma_me=1 / trellis=2 / 8x8dct=1 / cqm=0 / deadzone=21,11 / fast_pskip=1 / chroma_qp_offset=-2 / threads=6 / lookahead_threads=1 / sliced_threads=0 / nr=0 / decimate=0 / interlaced=0 / bluray_compat=0 / constrained_intra=0 / bframes=16 / b_pyramid=2 / b_adapt=2 / b_bias=0 / direct=3 / weightb=1 / open_gop=1 / weightp=2 / keyint=240 / keyint_min=23 / scenecut=40 / intra_refresh=0 / rc_lookahead=60 / rc=2pass / mbtree=1 / bitrate=4080 / ratetol=1.0 / qcomp=0.60 / qpmin=0 / qpmax=69 / qpstep=4 / cplxblur=20.0 / qblur=0.5 / vbv_maxrate=62500 / vbv_bufsize=50000 / nal_hrd=none / ip_ratio=1.40 / aq=1:0.80
Default                                  : Yes
Forced                                   : No
Audio #1
ID                                       : 2
Format                                   : AC-3
Format/Info                              : Audio Coding 3
Mode extension                           : CM (complete main)
Format settings, Endianness              : Big
Codec ID                                 : A_AC3
Duration                                 : 2h 5mn
Bit rate mode                            : Constant
Bit rate                                 : 448 Kbps
Channel(s)                               : 6 channels
Channel positions                        : Front: L C R, Side: L R, LFE
Sampling rate                            : 48.0 KHz
Bit depth                                : 16 bits
Compression mode                         : Lossy
Stream size                              : 403 MiB (9%)
Title                                    : Dub
Language                                 : Russian
Default                                  : Yes
Forced                                   : No
Audio #2
ID                                       : 3
Format                                   : AC-3
Format/Info                              : Audio Coding 3
Mode extension                           : CM (complete main)
Format settings, Endianness              : Big
Codec ID                                 : A_AC3
Duration                                 : 2h 5mn
Bit rate mode                            : Constant
Bit rate                                 : 448 Kbps
Channel(s)                               : 6 channels
Channel positions                        : Front: L C R, Side: L R, LFE
Sampling rate                            : 48.0 KHz
Bit depth                                : 16 bits
Compression mode                         : Lossy
Stream size                              : 403 MiB (9%)
Title                                    : Original
Language                                 : English
Default                                  : No
Forced                                   : No
Text #1
ID                                       : 4
Format                                   : UTF-8
Codec ID                                 : S_TEXT/UTF8
Codec ID/Info                            : UTF-8 Plain Text
Title                                    : Nurmukhametov
Language                                 : Russian
Default                                  : No
Forced                                   : No
Text #2
ID                                       : 5
Format                                   : UTF-8
Codec ID                                 : S_TEXT/UTF8
Codec ID/Info                            : UTF-8 Plain Text
Language                                 : English
Default                                  : No
Forced                                   : No
Menu
00:00:00.000                             : en:Chapter 01
00:07:40.334                             : en:Chapter 02
00:14:20.734                             : en:Chapter 03
00:20:31.563                             : en:Chapter 04
00:27:48.416                             : en:Chapter 05
00:34:54.801                             : en:Chapter 06
00:41:02.626                             : en:Chapter 07
00:46:28.786                             : en:Chapter 08
00:53:05.515                             : en:Chapter 09
01:01:00.238                             : en:Chapter 10
01:08:22.555                             : en:Chapter 11
01:14:43.812                             : en:Chapter 12
01:21:31.261                             : en:Chapter 13
01:31:01.706                             : en:Chapter 14
01:38:42.750                             : en:Chapter 15
01:45:41.084                             : en:Chapter 16
01:52:48.970                             : en:Chapter 17
01:58:00.114                             : en:Chapter 18
02:05:42.743                             : en:Chapter 19

x264 log

x264 [info]: frame I:1371  Avg QP: 8.79  size:108969
x264 [info]: frame P:45226 Avg QP:12.33  size: 40568
x264 [info]: frame B:134253 Avg QP:13.80  size: 13874
x264 [info]: consecutive B-frames:  4.5%  5.1% 11.7% 20.7% 16.8% 28.7%  5.9%  2.1%  1.6%  1.0%  0.6%  0.5%  0.2%  0.2%  0.1%  0.0%  0.2%
x264 [info]: mb I  I16..4:  7.6% 64.1% 28.3%
x264 [info]: mb P  I16..4:  1.3% 17.7%  2.9%  P16..4: 23.6% 34.1% 15.9%  0.0%  0.0%    skip: 4.5%
x264 [info]: mb B  I16..4:  0.1%  2.7%  0.4%  B16..8: 29.9% 28.3%  6.8%  direct: 8.2%  skip:23.4%  L0:45.7% L1:40.1% BI:14.3%
x264 [info]: 8x8 transform intra:80.2% inter:41.3%
x264 [info]: direct mvs  spatial:97.0% temporal:3.0%
x264 [info]: coded y,uvDC,uvAC intra: 92.8% 93.7% 85.3% inter: 33.0% 36.7% 25.4%
x264 [info]: i16 v,h,dc,p: 17% 10%  5% 68%
x264 [info]: i8 v,h,dc,ddl,ddr,vr,hd,vl,hu: 14% 11%  9%  8% 11% 10% 11% 11% 14%
x264 [info]: i4 v,h,dc,ddl,ddr,vr,hd,vl,hu: 14% 11%  6%  8% 14% 12% 12% 10% 12%
x264 [info]: i8c dc,h,v,p: 47% 22% 16% 15%
x264 [info]: Weighted P-Frames: Y:7.1% UV:4.1%
x264 [info]: ref P L0: 44.5%  6.7% 17.8%  7.6%  5.8%  3.9%  3.5%  2.1%  2.0%  1.6%  1.3%  1.0%  1.0%  0.9%  0.3%  0.0%
x264 [info]: ref B L0: 67.8% 13.2%  6.3%  3.6%  2.3%  1.8%  1.4%  1.0%  0.9%  0.8%  0.5%  0.3%  0.1%
x264 [info]: ref B L1: 91.7%  8.3%

Сравнение с исходником

http://screenshotcomparison.com/comparison/145255

-
*Звук получен переналожением участков с речью и отзвуками/эхом на каналы английской дорожки.
-С улучшением звука рип будет перезалит-
[Профиль] [ЛС]
Показать сообщения:    

Текущее время: Сегодня 20:34

Часовой пояс: GMT



Вы не можете начинать темы
Вы не можете отвечать на сообщения
Вы не можете редактировать свои сообщения
Вы не можете удалять свои сообщения
Вы не можете голосовать в опросах
Вы не можете прикреплять файлы к сообщениям
Вы не можете скачивать файлы