Терминатор: Генезис/ Terminator: Genisys (Алан Тейлор) [2015, Фантастика, боевик, триллер, приключения , BD-Remux 1080p] [DD5.1] [Dub Rus, Eng]+[Sub Rus, Eng]

 
Автор Сообщение

Враг Нароода ®

Стаж: 1 год 8 месяцев

Сообщений: 111



Награды: 2 (Подробнее)

Mega Seeder 1 (Количество: 1) За внесенный вклад в развитие сайта (Количество: 1)
Торрент-статистика

Создавать темы 17-Окт-2015 21:50

[Цитировать]

-- Терминатор: Генезис/ Terminator: Genisys -- --Год выпуска: 2015
Выпущено: США, Paramount Pictures, Skydance Productions, Centroid Motion Capture, Double Negative
Жанр: Фантастика, боевик, триллер, приключения
Продолжительность: 02:05:42
Озвучка # 1 :Русский : - Дубляж, [iTunes Russia]
Озвучка # 2 :Английский : - Оригинал, [Descriptive]
Субтитры: Russian (Forced, iTunes), Russian (iTunes), English, English (SDH)-- --Режиссер: Алан Тейлор--В ролях: Арнольд Шварценеггер, Джейсон Кларк, Эмилия Кларк, Джай Кортни, Дж.К. Симмонс, Дайо Окенийи, Мэтт Смит, Кортни Б. Вэнс, Бён Хон Ли, Майкл Глэдис, Сандрин Холт, Уэйн Баструп, Грегори Алан Уильямс, Отто Санчес, Мэтти Ферраро, Грифф Ферст, Йен Этеридж, Нолан Гросс, Сет Меривезер, Афемо Омилами-- Когда Джон Коннор, лидер сопротивления, посылает сержанта Кайла Риза назад в 1984 год, чтобы защитить Сару Коннор и спасти будущее, неожиданный поворот событий создает разлом во времени. Сержант Риз оказывается в новой, незнакомой версии прошлого, где он встречает неожиданных союзников, в том числе Терминатора, новых опасных врагов, и новую миссию: изменить будущее……-- --Качество : BD-Remux (1080p) Источник: Terminator.Genisys.2015.COMPLETE.BLURAY-LAZERS
Формат: MKV
Видео кодек: H264
Видео: 23,9Мбит/сек,1920х1080(16/9),в23.976кадр/сек,AVC(High@L4.1)(CABAC/4 Ref Frames)
Аудио Кодек:AC3
Аудио #1:AC3 , 640 Kbps, 48.0 KHz, 6 ch- -Русский - Дубляж, [iTunes Russia]
Аудио #2: AC3, 640 Kbps, 48.0 KHz, 6 ch - - Английский - Оригинал, [Descriptive]--

MediaInfo

Общее
Уникальный идентификатор : 215651378545744701356981506115708523739 (0xA23CF1DB116DF3D8A01EE44A5EDE14DB)
Полное имя : E:\К ИНО\ФАНТАСТИКА\Терминатор Генезис\Terminator_Genisys_2015_Blu-Ray_Remux_1080p_N.B_Rus_Eng\Terminator_Genisys_2015_Blu-Ray_Remux_1080p_N.B_Rus_Eng.mkv
Формат : Matroska
Версия формата : Version 4 / Version 2
Размер файла : 22,6 Гбайт
Продолжительность : 2 ч. 5 м.
Режим общего битрейта : Переменный
Общий поток : 25,7 Мбит/сек
Название фильма : Terminator_Genisys_2015_Blu-Ray_Remux_1080p_N.B_Rus_Eng
Дата кодирования : UTC 2015-10-16 13:48:13
Программа кодирования : mkvmerge v8.3.0 ('Over the Horizon') 64bit
Библиотека кодирования : libebml v1.3.1 + libmatroska v1.4.2
DURATION : 02:05:43.008000000
NUMBER_OF_FRAMES : 235719
NUMBER_OF_BYTES : 603440640
_STATISTICS_WRITING_APP : mkvmerge v8.3.0 ('Over the Horizon') 64bit
_STATISTICS_WRITING_DATE_UTC : 2015-10-16 13:48:13
_STATISTICS_TAGS : BPS DURATION NUMBER_OF_FRAMES NUMBER_OF_BYTES
Видео
Идентификатор : 1
Формат : AVC
Формат/Информация : Advanced Video Codec
Профиль формата : High@L4.1
Параметр CABAC формата : Да
Параметр ReFrames формата : 4 кадра
Идентификатор кодека : V_MPEG4/ISO/AVC
Продолжительность : 2 ч. 5 м.
Вид битрейта : Переменный
Битрейт : 23,9 Мбит/сек
Максимальный битрейт : 32,0 Мбит/сек
Ширина : 1920 пикселей
Высота : 1080 пикселей
Соотношение сторон : 16:9
Режим частоты кадров : Постоянный
Частота кадров : 23,976 кадра/сек
Цветовое пространство : YUV
Субдискретизация насыщенности : 4:2:0
Битовая глубина : 8 бит
Тип развёртки : Прогрессивная
Бит/(Пиксели*Кадры) : 0.481
Размер потока : 21,0 Гбайт (93%)
Default : Да
Forced : Нет
Аудио #1
Идентификатор : 6
Формат : AC-3
Формат/Информация : Audio Coding 3
Расширение режима : CM (complete main)
Параметр Endianness формата : Big
Идентификатор кодека : A_AC3
Продолжительность : 2 ч. 5 м.
Вид битрейта : Постоянный
Битрейт : 640 Кбит/сек
Каналы : 6 каналов
Расположение каналов : Front: L C R, Side: L R, LFE
Частота : 48,0 КГц
Метод сжатия : С потерями
Размер потока : 575 Мбайт (2%)
Default : Да
Forced : Нет
Аудио #2
Идентификатор : 7
Формат : AC-3
Формат/Информация : Audio Coding 3
Расширение режима : CM (complete main)
Параметр Endianness формата : Big
Идентификатор кодека : A_AC3
Продолжительность : 2 ч. 5 м.
Вид битрейта : Постоянный
Битрейт : 640 Кбит/сек
Каналы : 6 каналов
Расположение каналов : Front: L C R, Side: L R, LFE
Частота : 48,0 КГц
Метод сжатия : С потерями
Размер потока : 575 Мбайт (2%)
Default : Нет
Forced : Нет
Текст #1
Идентификатор : 2
Формат : PGS
Режим смешивания : zlib
Идентификатор кодека : S_HDMV/PGS
Идентификатор кодека/Информация : Picture based subtitle format used on BDs/HD-DVDs
Язык : Russian
Default : Да
Forced : Нет
Текст #2
Идентификатор : 3
Формат : PGS
Режим смешивания : zlib
Идентификатор кодека : S_HDMV/PGS
Идентификатор кодека/Информация : Picture based subtitle format used on BDs/HD-DVDs
Язык : English
Default : Нет
Forced : Нет
Текст #3
Идентификатор : 4
Формат : PGS
Режим смешивания : zlib
Идентификатор кодека : S_HDMV/PGS
Идентификатор кодека/Информация : Picture based subtitle format used on BDs/HD-DVDs
Язык : English
Default : Нет
Forced : Нет
Текст #4
Идентификатор : 5
Формат : PGS
Режим смешивания : zlib
Идентификатор кодека : S_HDMV/PGS
Идентификатор кодека/Информация : Picture based subtitle format used on BDs/HD-DVDs
Язык : Russian
Default : Нет
Forced : Нет
--

Скриншоты

-- ---- -- --Релиз от: Nikolai.Baranov -- -- -- --
[Профиль] [ЛС]
Показать сообщения:    

Текущее время: Сегодня 10:10

Часовой пояс: GMT



Вы не можете начинать темы
Вы не можете отвечать на сообщения
Вы не можете редактировать свои сообщения
Вы не можете удалять свои сообщения
Вы не можете голосовать в опросах
Вы не можете прикреплять файлы к сообщениям
Вы не можете скачивать файлы