Терминатор: Генезис в 3Д / Terminator Genisys 3D (Алан Тейл / Alan Taylor) [2015, фантастика, боевик, триллер, BDrip-AVC] Half OverUnder / Вертикальная анаморфная стереопара

 
Автор Сообщение

TorrentFilm ®

Пол:

Стаж: 2 года

Сообщений: 7741



Награды: Нет

Торрент-статистика

Создавать темы 08-Мар-2016 00:08

[Цитировать]

Терминатор: Генезис / Terminator Genisys
Год выпуска: 2015
Страна: США
Студия: Paramount Pictures
Жанр: фантастика, боевик, триллер
Продолжительность: 02:05:42
Перевод: Профессиональный (дублированный)
Русские субтитры: есть
Режиссер на русском: Алан Тейл
Режиссер на английском: Alan Taylor
В ролях: Арнольд Шварценеггер, Джейсон Кларк, Эмилия Кларк, Джай Кортни, Дж.К. Симмонс, Дайо Окенийи, Мэтт Смит, Кортни Б. Вэнс, Ли Бён Хон, Майкл Глэдис
Описание: Когда Джон Коннор, лидер сопротивления, посылает сержанта Кайла Риза назад в 1984 год, чтобы защитить Сару Коннор и спасти будущее, неожиданный поворот событий создает разлом во времени. Сержант Риз оказывается в новой, незнакомой версии прошлого, где он встречает неожиданных союзников, в том числе Терминатора, новых опасных врагов, и новую миссию: изменить будущее...
Качество: BDrip
Контейнер: MKV
Формат 3D: Half OverUnder / Вертикальная анаморфная стереопара
Порядок ракурсов: левый ракурс первый
Видео кодек: x264
Аудио кодек: AC3
Видео: 1920x1080 at 23.976 fps, x264@L4.1, crf, ~13900 kbps avg
Аудио#1: Russian: 48 kHz, AC3, 3/2 (L,C,R,l,r) + LFE ch, ~640.00 kbps avg |Дубляж, Blu-ray CEE|
Аудио#2: Russian: 48 kHz, DTS, 3/2 (L,C,R,l,r) + LFE ch, ~1536.00 kbps avg |Дубляж, Paramount Pictures|
Аудио#3: Russian: 48 kHz, DTS, 3/2 (L,C,R,l,r) + LFE ch, ~1536.00 kbps avg |Многоголосый закадровый, студия «Омикрон»|
Аудио#4: Russian: 48 kHz, DTS, 3/2 (L,C,R,l,r) + LFE ch, ~1536.00 kbps avg |Одноголосый закадровый, Володарский|
Аудио#5: Russian: 48 kHz, DTS, 3/2 (L,C,R,l,r) + LFE ch, ~1536.00 kbps avg |Одноголосый закадровый, Гаврилов|
Аудио#6: Russian: 48 kHz, DTS, 3/2 (L,C,R,l,r) + LFE ch, ~1536.00 kbps avg |Одноголосый закадровый, Есарев|
Аудио#7: Ukrainian: 48 kHz, AC3, 2/0 (L,R) ch, ~192.00 kbps avg |Дубляж|
Аудио#8: English: 48 kHz, DTS-ES, 3/2 (L,C,R,l,r) + LFE ch, ~1536.00 kbps avg |Original from BD|
Субтитры: Russian, English

MediaInfo

Общее
Уникальный идентификатор : 222027647100722732227864040781845964402 (0xA708F82AD0C349E98B1A7689D28D2672)
Полное имя : Terminator.Genisys.2015.3D.BluRay.Half-OU.Rus.Ukr.Eng.HDCLUB.mkv
Формат : Matroska
Версия формата : Version 4 / Version 2
Размер файла : 20,9 Гбайт
Продолжительность : 2 ч. 5 м.
Общий поток : 23,8 Мбит/сек
Дата кодирования : UTC 2015-12-21 10:37:26
Программа кодирования : mkvmerge v8.3.0 ('Over the Horizon') 64bit
Библиотека кодирования : libebml v1.3.1 + libmatroska v1.4.2
Attachements : cover
Видео
Идентификатор : 1
Формат : AVC
Формат/Информация : Advanced Video Codec
Профиль формата : High@L4.1
Параметр CABAC формата : Да
Параметр ReFrames формата : 4 кадра
Идентификатор кодека : V_MPEG4/ISO/AVC
Продолжительность : 2 ч. 5 м.
Битрейт : 13,9 Мбит/сек
Ширина : 1920 пикселей
Высота : 1080 пикселей
Соотношение сторон : 16:9
Режим частоты кадров : Постоянный
Частота кадров : 23,976 (24000/1001) кадра/сек
Цветовое пространство : YUV
Субдискретизация насыщенности : 4:2:0
Битовая глубина : 8 бит
Тип развёртки : Прогрессивная
Бит/(Пиксели*Кадры) : 0.279
Размер потока : 12,2 Гбайт (58%)
Заголовок : Terminator Genisys (2015) 1080p 3D Half-OU BDRip
Библиотека кодирования : x264 core 148 r2638+53 bb29004 t_mod_Custom [8-bit@all X86]
Настройки программы : cabac=1 / ref=4 / deblock=1:-3:-3 / analyse=0x3:0x113 / me=umh / subme=10 / psy=1 / fade_compensate=0.00 / psy_rd=1.00:0.00 / mixed_ref=1 / me_range=64 / chroma_me=1 / trellis=2 / 8x8dct=1 / cqm=0 / deadzone=21,11 / fast_pskip=0 / chroma_qp_offset=-2 / threads=12 / lookahead_threads=3 / sliced_threads=0 / nr=0 / decimate=1 / interlaced=0 / bluray_compat=0 / constrained_intra=0 / fgo=0 / bframes=12 / b_pyramid=2 / b_adapt=2 / b_bias=0 / direct=3 / weightb=1 / open_gop=0 / weightp=2 / keyint=250 / keyint_min=23 / scenecut=40 / intra_refresh=0 / rc=crf / mbtree=0 / crf=15.4000 / qcomp=0.60 / qpmin=0:0:0 / qpmax=69:69:69 / qpstep=4 / frame-packing=4 / ip_ratio=1.40 / pb_ratio=1.30 / aq=1:1.00 / aq-sensitivity=10.00 / aq-factor=1.00:1.00:1.00 / aq2=0 / aq3=0 / zones=551,636,crf=12.5/2043,2283,crf=12.5/3443,3530,crf=12/12521,12557,crf=13/12923,13301,crf=12/17807,18240,crf=12.5/23439,23514,crf=12.5/25552,25625,crf=12/29803,29895,crf=12/30560,30656,crf=11.5/39221,39270,crf=11/46291,46355,crf=10.5/52838,52896,crf=10.5/53782,53807,crf=11/54426,54638,crf=12/65003,65175,crf=12/74742,74781,crf=11/111635,111947,crf=11/112772,112874,crf=10/117479,117558,crf=11/123588,123733,crf=11/129233,129254,crf=11.5/129674,129819,crf=12/130553,130622,crf=11/134878,134967,crf=11/135530,135564,crf=12/140584,140784,crf=11/152226,152303,crf=11/153587,153666,crf=11.5/153882,153943,crf=12/157802,157882,crf=11
Язык : English
Default : Да
Forced : Нет
Аудио #1
Идентификатор : 2
Формат : AC-3
Формат/Информация : Audio Coding 3
Расширение режима : CM (complete main)
Параметр Endianness формата : Big
Идентификатор кодека : A_AC3
Продолжительность : 2 ч. 5 м.
Вид битрейта : Постоянный
Битрейт : 640 Кбит/сек
Каналы : 6 каналов
Расположение каналов : Front: L C R, Side: L R, LFE
Частота : 48,0 КГц
Частота кадров : 31,250 кадров/сек (1536 spf)
Метод сжатия : С потерями
Размер потока : 575 Мбайт (3%)
Заголовок : [Blu-ray CEE] Dub - AC3 5.1 @ 640 kbps
Язык : Russian
Default : Нет
Forced : Нет
Аудио #2
Идентификатор : 3
Формат : DTS
Формат/Информация : Digital Theater Systems
Режим : 16
Параметр Endianness формата : Big
Идентификатор кодека : A_DTS
Продолжительность : 2 ч. 5 м.
Вид битрейта : Постоянный
Битрейт : 1509 Кбит/сек
Каналы : 6 каналов
Расположение каналов : Front: L C R, Side: L R, LFE
Частота : 48,0 КГц
Частота кадров : 93,750 кадра/сек (512 spf)
Битовая глубина : 24 бит
Метод сжатия : С потерями
Размер потока : 1,33 Гбайт (6%)
Заголовок : [Paramount Pictures] Dub - DTS 5.1 @ 1536 kbps
Язык : Russian
Default : Да
Forced : Нет
Аудио #3
Идентификатор : 4
Формат : DTS
Формат/Информация : Digital Theater Systems
Режим : 16
Параметр Endianness формата : Big
Идентификатор кодека : A_DTS
Продолжительность : 2 ч. 5 м.
Вид битрейта : Постоянный
Битрейт : 1509 Кбит/сек
Каналы : 6 каналов
Расположение каналов : Front: L C R, Side: L R, LFE
Частота : 48,0 КГц
Частота кадров : 93,750 кадра/сек (512 spf)
Битовая глубина : 24 бит
Метод сжатия : С потерями
Размер потока : 1,33 Гбайт (6%)
Заголовок : [Omicron] Mvo - DTS 5.1 @ 1536 kbps
Язык : Russian
Default : Нет
Forced : Нет
Аудио #4
Идентификатор : 5
Формат : DTS
Формат/Информация : Digital Theater Systems
Режим : 16
Параметр Endianness формата : Big
Идентификатор кодека : A_DTS
Продолжительность : 2 ч. 5 м.
Вид битрейта : Постоянный
Битрейт : 1509 Кбит/сек
Каналы : 6 каналов
Расположение каналов : Front: L C R, Side: L R, LFE
Частота : 48,0 КГц
Частота кадров : 93,750 кадра/сек (512 spf)
Битовая глубина : 24 бит
Метод сжатия : С потерями
Размер потока : 1,33 Гбайт (6%)
Заголовок : [Володарский] Avo - DTS 5.1 @ 1536 kbps
Язык : Russian
Default : Нет
Forced : Нет
Аудио #5
Идентификатор : 6
Формат : DTS
Формат/Информация : Digital Theater Systems
Режим : 16
Параметр Endianness формата : Big
Идентификатор кодека : A_DTS
Продолжительность : 2 ч. 5 м.
Вид битрейта : Постоянный
Битрейт : 1509 Кбит/сек
Каналы : 6 каналов
Расположение каналов : Front: L C R, Side: L R, LFE
Частота : 48,0 КГц
Частота кадров : 93,750 кадра/сек (512 spf)
Битовая глубина : 24 бит
Метод сжатия : С потерями
Размер потока : 1,33 Гбайт (6%)
Заголовок : [Гаврилов] Avo - DTS 5.1 @ 1536 kbps
Язык : Russian
Default : Нет
Forced : Нет
Аудио #6
Идентификатор : 7
Формат : DTS
Формат/Информация : Digital Theater Systems
Режим : 16
Параметр Endianness формата : Big
Идентификатор кодека : A_DTS
Продолжительность : 2 ч. 5 м.
Вид битрейта : Постоянный
Битрейт : 1509 Кбит/сек
Каналы : 6 каналов
Расположение каналов : Front: L C R, Side: L R, LFE
Частота : 48,0 КГц
Частота кадров : 93,750 кадра/сек (512 spf)
Битовая глубина : 24 бит
Метод сжатия : С потерями
Размер потока : 1,33 Гбайт (6%)
Заголовок : [Есарев] Avo - DTS 5.1 @ 1536 kbps
Язык : Russian
Default : Нет
Forced : Нет
Аудио #7
Идентификатор : 8
Формат : AC-3
Формат/Информация : Audio Coding 3
Расширение режима : CM (complete main)
Параметр Endianness формата : Big
Идентификатор кодека : A_AC3
Продолжительность : 2 ч. 5 м.
Вид битрейта : Постоянный
Битрейт : 192 Кбит/сек
Каналы : 2 канала
Расположение каналов : Front: L R
Частота : 48,0 КГц
Частота кадров : 31,250 кадров/сек (1536 spf)
Метод сжатия : С потерями
Размер потока : 173 Мбайт (1%)
Заголовок : Dub - AC3 2.0 @ 192 kbps
Язык : Ukrainian
Default : Нет
Forced : Нет
Аудио #8
Идентификатор : 9
Формат : DTS
Формат/Информация : Digital Theater Systems
Профиль формата : ES Discrete / Core
Режим : 16
Параметр Endianness формата : Big
Идентификатор кодека : A_DTS
Продолжительность : 2 ч. 5 м.
Вид битрейта : Постоянный
Битрейт : 1509 Кбит/сек
Каналы : 7 каналов / 6 каналов
Расположение каналов : Front: L C R, Side: L R, Back: C, LFE / Front: L C R, Side: L R, LFE
Частота : 48,0 КГц
Частота кадров : 93,750 кадра/сек (512 spf)
Битовая глубина : 24 бит
Метод сжатия : С потерями
Размер потока : 1,33 Гбайт (6%)
Заголовок : [Original from BD] DTS-ES 5.1 @ 1536 kbps
Язык : English
Default : Нет
Forced : Нет
Текст #1
Идентификатор : 10
Формат : UTF-8
Идентификатор кодека : S_TEXT/UTF8
Идентификатор кодека/Информация : UTF-8 Plain Text
Продолжительность : 1 ч. 40 м.
Битрейт : 0 бит/сек
Count of elements : 16
Размер потока : 601 байт (0%)
Заголовок : [SRT/UTF8] Forced
Язык : Russian
Default : Нет
Forced : Нет
Текст #2
Идентификатор : 11
Формат : UTF-8
Идентификатор кодека : S_TEXT/UTF8
Идентификатор кодека/Информация : UTF-8 Plain Text
Продолжительность : 1 ч. 56 м.
Битрейт : 79 бит/сек
Count of elements : 1289
Размер потока : 67,8 Кбайт (0%)
Заголовок : [SRT/UTF8] Full
Язык : Russian
Default : Нет
Forced : Нет
Текст #3
Идентификатор : 12
Формат : UTF-8
Идентификатор кодека : S_TEXT/UTF8
Идентификатор кодека/Информация : UTF-8 Plain Text
Продолжительность : 1 ч. 56 м.
Битрейт : 47 бит/сек
Count of elements : 1340
Размер потока : 40,4 Кбайт (0%)
Заголовок : [SRT/UTF8] Full
Язык : English
Default : Нет
Forced : Нет
Текст #4
Идентификатор : 13
Формат : UTF-8
Идентификатор кодека : S_TEXT/UTF8
Идентификатор кодека/Информация : UTF-8 Plain Text
Продолжительность : 1 ч. 58 м.
Битрейт : 51 бит/сек
Count of elements : 1606
Размер потока : 44,6 Кбайт (0%)
Заголовок : [SRT/UTF8] Full SDH
Язык : English
Default : Нет
Forced : Нет
Текст #5
Идентификатор : 14
Формат : PGS
Режим смешивания : zlib
Идентификатор кодека : S_HDMV/PGS
Идентификатор кодека/Информация : Picture based subtitle format used on BDs/HD-DVDs
Продолжительность : 1 ч. 40 м.
Битрейт : 187 бит/сек
Count of elements : 32
Размер потока : 139 Кбайт (0%)
Заголовок : [PGS] Forced for 3D Half-OU
Язык : Russian
Default : Да
Forced : Нет
Меню
00:00:00.000 : en:Chapter 01
00:07:40.335 : en:Chapter 02
00:14:20.735 : en:Chapter 03
00:20:31.564 : en:Chapter 04
00:27:48.417 : en:Chapter 05
00:34:54.801 : en:Chapter 06
00:41:02.627 : en:Chapter 07
00:46:28.786 : en:Chapter 08
00:53:05.516 : en:Chapter 09
01:01:00.240 : en:Chapter 10
01:08:22.557 : en:Chapter 11
01:14:43.813 : en:Chapter 12
01:21:31.261 : en:Chapter 13
01:31:01.706 : en:Chapter 14
01:38:42.750 : en:Chapter 15
01:45:41.085 : en:Chapter 16
01:52:48.971 : en:Chapter 17

Скриншоты: Source vs. Encode



Релиз

  • Перевод и озвучка "Омикрон" выполнены в рамках сервиса "Озвучивание" HDClub. Спонсоры: IceFireW, amid_, MishGan2008, plunix, spoon, LeXa, moNTer, Shurko, xmods, quatroddd, SatanClaus, grizlii, ultrajeka, SergyKs, Saparow, arturo, metallist, Domockloff, bacchuster, Genychar, PoHHaN, KostiK_282, RiCo97, imperator66, Sektor, Pertcev, alexk095, Spock, BorAlex, pwkig205, churbakov, Fireware, IvAlien, sep21, hohotun63, Ex1l, Cujo, vova1510, Quake3, kengyr, BanzaySar, mcevg, MaceWindow, Ser_Gio7171, BSAq, darex72, olgapro, Badj, Korney, zbtk, WorldLand, Tahoe, BacekB, sivservik, 1215, Dumbolt, exact, VuDZ, muhtar, torvm, urfyn, Tols, Xutpec, perrelcin, Interfere, Dieselmouse, valglb, peps1962, BlackTigerTK, YakAleksM, olgierd, irrlicht, BizzyD, 1cancer, Hog_Wild, givi070, anvador, dyashuni, Cenitel, alibabay911, RuAzak, lexjohnson.
  • Задействовано 8 актеров. В озвучивании участвует Владислав Пупков - Легенды Дубляжа.
  • за перевод Гаврилова большое спасибо форуму dunhill200.net
  • за перевод Володарского большое спасибо форуму е180
  • за перевод Есарева большое спасибо Переулку Переводмана
  • Аудио №2 сделана из оригинальной DTS-HD MA дорожки и дублированной ac3 дорожки путём замены всех участков с английской речью, отголосками и эхом на аналогичные с дублированной дорожки во всех каналах, и прочими редакторскими правками. Спасибо YuriyAS
[Профиль] [ЛС]
Показать сообщения:    

Текущее время: Сегодня 14:02

Часовой пояс: GMT



Вы не можете начинать темы
Вы не можете отвечать на сообщения
Вы не можете редактировать свои сообщения
Вы не можете удалять свои сообщения
Вы не можете голосовать в опросах
Вы не можете прикреплять файлы к сообщениям
Вы не можете скачивать файлы