Тепловозы типа "Бульдог" на BLU-RAY / HD TRAINS BULLDOGS ON BLU-RAY [2014, Документальный, релаксация, видовой, Blu-ray disc]

 
Автор Сообщение

TorrentFilm ®

Пол:

Стаж: 1 год 11 месяцев

Сообщений: 7741



Награды: Нет

Торрент-статистика

Создавать темы 15-Май-2015 00:04

[Цитировать]

Тепловозы типа "Бульдог" на BLU-RAY / HD TRAINS BULLDOGS ON BLU-RAY
Год выпуска: 2014
Страна: Австралия
Студия: Copyright BEVAN WALL
Жанр: Документальный, релаксация, видовой
Продолжительность: 2:10:00
Перевод: Не требуется
Русские субтитры: нет
Описание: Тепловозы типа "Бульдог". С 2004 по 2013 тепловозы такого класса работали напряженно на территории Нового Южного Уэльса (Австралия). Тепловоз QRN CLPS & 421s и трёх секционные тепловозы в фирменной окраске работали в основном на юге. Парк тепловозов "ССР" и "бульдогов" водили поезда в Коуэн, Катумба и на берегу Тумула. Удивительно разнообразие других "бульдогов" и классов и старых и новых показаны в фильме. Фильм широкоформатный, без комментариев диктора.
Меню: Статичное
Сэмпл: http://sendfile.su/1117657
Тип релиза: Blu-ray disc 1080i
Контейнер: M2TS
Видео: MPEG-4 AVC Video / 24585 kbps / 1080i / 25 fps / 16:9 / High Profile 4.1
Аудио: English / Dolby Digital Audio / 2.0 / 48 kHz / 192 kbps / DN -4dB

MediaInfo

Disc Title: BULLDOGS on BLURAYDisc Size: 23 831 434 686 bytesProtection: AACSBD-Java: NoExtras: 50Hz ContentBDInfo: 0.5.8
Notes:
BDINFO HOME: Cinema Squid http://www.cinemasquid.com/blu-ray/tools/bdinfo
INCLUDES FORUMS REPORT FOR: AVS Forum Blu-ray Audio and Video Specifications Thread http://www.avsforum.com/avs-vb/showthread.php?t=1155731
********************PLAYLIST: 00002.MPLS********************
Total   Video
Title                                                           Codec   Length  Movie Size      Disc Size       Bitrate Bitrate Main Audio Track                          Secondary Audio Track
-----                                                           ------  ------- --------------  --------------  ------- ------- ------------------                        ---------------------
00002.MPLS                                                      AVC     0:19:12 3 928 621 056   23 831 434 686  27,28   25,82   DD AC3 2.0 192Kbps
DISC INFO:
Disc Title:     BULLDOGS on BLURAY
Disc Size:      23 831 434 686 bytes
Protection:     AACS
BD-Java:        No
Extras:         50Hz Content
BDInfo:         0.5.8
PLAYLIST REPORT:
Name:                   00002.MPLS
Length:                 0:19:12.280 (h:m:s.ms)
Size:                   3 928 621 056 bytes
Total Bitrate:          27,28 Mbps
VIDEO:
Codec                   Bitrate             Description
-----                   -------             -----------
MPEG-4 AVC Video        25819 kbps          1080i / 25 fps / 16:9 / High Profile 4.1
AUDIO:
Codec                           Language        Bitrate         Description
-----                           --------        -------         -----------
Dolby Digital Audio             English         192 kbps        2.0 / 48 kHz / 192 kbps / DN -4dB
FILES:
Name            Time In         Length          Size            Total Bitrate
----            -------         ------          ----            -------------
00002.M2TS      0:00:00.000     0:19:12.280     3 928 621 056   27 275
CHAPTERS:
Number          Time In         Length          Avg Video Rate  Max 1-Sec Rate  Max 1-Sec Time  Max 5-Sec Rate  Max 5-Sec Time  Max 10Sec Rate  Max 10Sec Time  Avg Frame Size  Max Frame Size  Max Frame Time
------          -------         ------          --------------  --------------  --------------  --------------  --------------  --------------  --------------  --------------  --------------  --------------
1               0:00:00.000     0:19:12.280     25 819 kbps     54 865 kbps     00:00:01.360    32 542 kbps     00:15:00.720    31 553 kbps     00:14:59.040    129 095 bytes   431 880 bytes   00:00:02.200
STREAM DIAGNOSTICS:
File            PID             Type            Codec           Language                Seconds                 Bitrate                 Bytes           Packets
----            ---             ----            -----           --------                --------------          --------------          -------------   -----
00002.M2TS      4113 (0x1011)   0x1B            AVC                                     1152,160                25 822                  3 718 843 173   20 242 323
00002.M2TS      4352 (0x1100)   0x81            AC3             eng (English)           1152,160                192                     27 653 376      180 035
QUICK SUMMARY:
Disc Title: BULLDOGS on BLURAYDisc Size: 23 831 434 686 bytesProtection: AACSBD-Java: NoPlaylist: 00002.MPLSSize: 3 928 621 056 bytesLength: 0:19:12.280Total Bitrate: 27,28 MbpsVideo: MPEG-4 AVC Video / 25819 kbps / 1080i / 25 fps / 16:9 / High Profile 4.1Audio: English / Dolby Digital Audio / 2.0 / 48 kHz / 192 kbps / DN -4dB
********************PLAYLIST: 00007.MPLS********************
Total   Video
Title                                                           Codec   Length  Movie Size      Disc Size       Bitrate Bitrate Main Audio Track                          Secondary Audio Track
-----                                                           ------  ------- --------------  --------------  ------- ------- ------------------                        ---------------------
00007.MPLS                                                      AVC     0:18:08 3 776 249 856   23 831 434 686  27,74   26,27   DD AC3 2.0 192Kbps
DISC INFO:
Disc Title:     BULLDOGS on BLURAY
Disc Size:      23 831 434 686 bytes
Protection:     AACS
BD-Java:        No
Extras:         50Hz Content
BDInfo:         0.5.8
PLAYLIST REPORT:
Name:                   00007.MPLS
Length:                 0:18:08.880 (h:m:s.ms)
Size:                   3 776 249 856 bytes
Total Bitrate:          27,74 Mbps
VIDEO:
Codec                   Bitrate             Description
-----                   -------             -----------
MPEG-4 AVC Video        26268 kbps          1080i / 25 fps / 16:9 / High Profile 4.1
AUDIO:
Codec                           Language        Bitrate         Description
-----                           --------        -------         -----------
Dolby Digital Audio             English         192 kbps        2.0 / 48 kHz / 192 kbps / DN -4dB
FILES:
Name            Time In         Length          Size            Total Bitrate
----            -------         ------          ----            -------------
00007.M2TS      0:00:00.000     0:18:08.880     3 776 249 856   27 744
CHAPTERS:
Number          Time In         Length          Avg Video Rate  Max 1-Sec Rate  Max 1-Sec Time  Max 5-Sec Rate  Max 5-Sec Time  Max 10Sec Rate  Max 10Sec Time  Avg Frame Size  Max Frame Size  Max Frame Time
------          -------         ------          --------------  --------------  --------------  --------------  --------------  --------------  --------------  --------------  --------------  --------------
1               0:00:00.000     0:18:08.880     26 268 kbps     55 703 kbps     00:00:01.879    32 890 kbps     00:00:58.880    31 507 kbps     00:11:20.720    131 338 bytes   519 095 bytes   00:00:02.759
STREAM DIAGNOSTICS:
File            PID             Type            Codec           Language                Seconds                 Bitrate                 Bytes           Packets
----            ---             ----            -----           --------                --------------          --------------          -------------   -----
00007.M2TS      4113 (0x1011)   0x1B            AVC                                     1088,760                26 271                  3 575 286 853   19 460 440
00007.M2TS      4352 (0x1100)   0x81            AC3             eng (English)           1088,760                192                     26 131 968      170 130
QUICK SUMMARY:
Disc Title: BULLDOGS on BLURAYDisc Size: 23 831 434 686 bytesProtection: AACSBD-Java: NoPlaylist: 00007.MPLSSize: 3 776 249 856 bytesLength: 0:18:08.880Total Bitrate: 27,74 MbpsVideo: MPEG-4 AVC Video / 26268 kbps / 1080i / 25 fps / 16:9 / High Profile 4.1Audio: English / Dolby Digital Audio / 2.0 / 48 kHz / 192 kbps / DN -4dB
********************PLAYLIST: 00014.MPLS********************
Total   Video
Title                                                           Codec   Length  Movie Size      Disc Size       Bitrate Bitrate Main Audio Track                          Secondary Audio Track
-----                                                           ------  ------- --------------  --------------  ------- ------- ------------------                        ---------------------
00014.MPLS                                                      AVC     0:13:49 2 795 962 368   23 831 434 686  26,95   25,51   DD AC3 2.0 192Kbps
DISC INFO:
Disc Title:     BULLDOGS on BLURAY
Disc Size:      23 831 434 686 bytes
Protection:     AACS
BD-Java:        No
Extras:         50Hz Content
BDInfo:         0.5.8
PLAYLIST REPORT:
Name:                   00014.MPLS
Length:                 0:13:49.839 (h:m:s.ms)
Size:                   2 795 962 368 bytes
Total Bitrate:          26,95 Mbps
VIDEO:
Codec                   Bitrate             Description
-----                   -------             -----------
MPEG-4 AVC Video        25511 kbps          1080i / 25 fps / 16:9 / High Profile 4.1
AUDIO:
Codec                           Language        Bitrate         Description
-----                           --------        -------         -----------
Dolby Digital Audio             English         192 kbps        2.0 / 48 kHz / 192 kbps / DN -4dB
FILES:
Name            Time In         Length          Size            Total Bitrate
----            -------         ------          ----            -------------
00014.M2TS      0:00:00.000     0:13:49.839     2 795 962 368   26 954
CHAPTERS:
Number          Time In         Length          Avg Video Rate  Max 1-Sec Rate  Max 1-Sec Time  Max 5-Sec Rate  Max 5-Sec Time  Max 10Sec Rate  Max 10Sec Time  Avg Frame Size  Max Frame Size  Max Frame Time
------          -------         ------          --------------  --------------  --------------  --------------  --------------  --------------  --------------  --------------  --------------  --------------
1               0:00:00.000     0:13:49.839     25 511 kbps     53 082 kbps     00:00:18.679    32 503 kbps     00:10:18.559    31 362 kbps     00:08:14.280    127 556 bytes   414 168 bytes   00:00:19.200
STREAM DIAGNOSTICS:
File            PID             Type            Codec           Language                Seconds                 Bitrate                 Bytes           Packets
----            ---             ----            -----           --------                --------------          --------------          -------------   -----
00014.M2TS      4113 (0x1011)   0x1B            AVC                                     829,680                 25 516                  2 646 280 712   14 404 581
00014.M2TS      4352 (0x1100)   0x81            AC3             eng (English)           829,680                 192                     19 915 008      129 655
QUICK SUMMARY:
Disc Title: BULLDOGS on BLURAYDisc Size: 23 831 434 686 bytesProtection: AACSBD-Java: NoPlaylist: 00014.MPLSSize: 2 795 962 368 bytesLength: 0:13:49.839Total Bitrate: 26,95 MbpsVideo: MPEG-4 AVC Video / 25511 kbps / 1080i / 25 fps / 16:9 / High Profile 4.1Audio: English / Dolby Digital Audio / 2.0 / 48 kHz / 192 kbps / DN -4dB
********************PLAYLIST: 00009.MPLS********************
Total   Video
Title                                                           Codec   Length  Movie Size      Disc Size       Bitrate Bitrate Main Audio Track                          Secondary Audio Track
-----                                                           ------  ------- --------------  --------------  ------- ------- ------------------                        ---------------------
00009.MPLS                                                      AVC     0:10:03 927 596 544     23 831 434 686  12,29   11,45   DD AC3 2.0 192Kbps
DISC INFO:
Disc Title:     BULLDOGS on BLURAY
Disc Size:      23 831 434 686 bytes
Protection:     AACS
BD-Java:        No
Extras:         50Hz Content
BDInfo:         0.5.8
PLAYLIST REPORT:
Name:                   00009.MPLS
Length:                 0:10:03.920 (h:m:s.ms)
Size:                   927 596 544 bytes
Total Bitrate:          12,29 Mbps
VIDEO:
Codec                   Bitrate             Description
-----                   -------             -----------
MPEG-4 AVC Video        11454 kbps          1080i / 25 fps / 16:9 / High Profile 4.1
AUDIO:
Codec                           Language        Bitrate         Description
-----                           --------        -------         -----------
Dolby Digital Audio             English         192 kbps        2.0 / 48 kHz / 192 kbps / DN -4dB
FILES:
Name            Time In         Length          Size            Total Bitrate
----            -------         ------          ----            -------------
00009.M2TS      0:00:00.000     0:10:03.920     927 596 544     12 288
CHAPTERS:
Number          Time In         Length          Avg Video Rate  Max 1-Sec Rate  Max 1-Sec Time  Max 5-Sec Rate  Max 5-Sec Time  Max 10Sec Rate  Max 10Sec Time  Avg Frame Size  Max Frame Size  Max Frame Time
------          -------         ------          --------------  --------------  --------------  --------------  --------------  --------------  --------------  --------------  --------------  --------------
1               0:00:00.000     0:10:03.920     11 454 kbps     23 937 kbps     00:00:03.799    13 811 kbps     00:07:03.480    13 554 kbps     00:06:58.440    57 269 bytes    206 084 bytes   00:00:04.320
STREAM DIAGNOSTICS:
File            PID             Type            Codec           Language                Seconds                 Bitrate                 Bytes           Packets
----            ---             ----            -----           --------                --------------          --------------          -------------   -----
00009.M2TS      4113 (0x1011)   0x1B            AVC                                     603,760                 11 457                  864 650 863     4 715 637
00009.M2TS      4352 (0x1100)   0x81            AC3             eng (English)           603,760                 192                     14 492 928      94 355
QUICK SUMMARY:
Disc Title: BULLDOGS on BLURAYDisc Size: 23 831 434 686 bytesProtection: AACSBD-Java: NoPlaylist: 00009.MPLSSize: 927 596 544 bytesLength: 0:10:03.920Total Bitrate: 12,29 MbpsVideo: MPEG-4 AVC Video / 11454 kbps / 1080i / 25 fps / 16:9 / High Profile 4.1Audio: English / Dolby Digital Audio / 2.0 / 48 kHz / 192 kbps / DN -4dB
********************PLAYLIST: 00004.MPLS********************
Total   Video
Title                                                           Codec   Length  Movie Size      Disc Size       Bitrate Bitrate Main Audio Track                          Secondary Audio Track
-----                                                           ------  ------- --------------  --------------  ------- ------- ------------------                        ---------------------
00004.MPLS                                                      AVC     0:09:54 2 034 499 584   23 831 434 686  27,40   25,93   DD AC3 2.0 192Kbps
DISC INFO:
Disc Title:     BULLDOGS on BLURAY
Disc Size:      23 831 434 686 bytes
Protection:     AACS
BD-Java:        No
Extras:         50Hz Content
BDInfo:         0.5.8
PLAYLIST REPORT:
Name:                   00004.MPLS
Length:                 0:09:54.119 (h:m:s.ms)
Size:                   2 034 499 584 bytes
Total Bitrate:          27,40 Mbps
VIDEO:
Codec                   Bitrate             Description
-----                   -------             -----------
MPEG-4 AVC Video        25933 kbps          1080i / 25 fps / 16:9 / High Profile 4.1
AUDIO:
Codec                           Language        Bitrate         Description
-----                           --------        -------         -----------
Dolby Digital Audio             English         192 kbps        2.0 / 48 kHz / 192 kbps / DN -4dB
FILES:
Name            Time In         Length          Size            Total Bitrate
----            -------         ------          ----            -------------
00004.M2TS      0:00:00.000     0:09:54.119     2 034 499 584   27 395
CHAPTERS:
Number          Time In         Length          Avg Video Rate  Max 1-Sec Rate  Max 1-Sec Time  Max 5-Sec Rate  Max 5-Sec Time  Max 10Sec Rate  Max 10Sec Time  Avg Frame Size  Max Frame Size  Max Frame Time
------          -------         ------          --------------  --------------  --------------  --------------  --------------  --------------  --------------  --------------  --------------  --------------
1               0:00:00.000     0:09:54.119     25 933 kbps     55 177 kbps     00:00:02.240    30 919 kbps     00:07:25.520    29 459 kbps     00:07:20.520    129 666 bytes   426 822 bytes   00:00:03.159
STREAM DIAGNOSTICS:
File            PID             Type            Codec           Language                Seconds                 Bitrate                 Bytes           Packets
----            ---             ----            -----           --------                --------------          --------------          -------------   -----
00004.M2TS      4113 (0x1011)   0x1B            AVC                                     594,000                 25 938                  1 925 926 467   10 483 138
00004.M2TS      4352 (0x1100)   0x81            AC3             eng (English)           594,000                 192                     14 257 920      92 825
QUICK SUMMARY:
Disc Title: BULLDOGS on BLURAYDisc Size: 23 831 434 686 bytesProtection: AACSBD-Java: NoPlaylist: 00004.MPLSSize: 2 034 499 584 bytesLength: 0:09:54.119Total Bitrate: 27,40 MbpsVideo: MPEG-4 AVC Video / 25933 kbps / 1080i / 25 fps / 16:9 / High Profile 4.1Audio: English / Dolby Digital Audio / 2.0 / 48 kHz / 192 kbps / DN -4dB
********************PLAYLIST: 00010.MPLS********************
Total   Video
Title                                                           Codec   Length  Movie Size      Disc Size       Bitrate Bitrate Main Audio Track                          Secondary Audio Track
-----                                                           ------  ------- --------------  --------------  ------- ------- ------------------                        ---------------------
00010.MPLS                                                      AVC     0:09:11 1 805 844 480   23 831 434 686  26,22   24,81   DD AC3 2.0 192Kbps
DISC INFO:
Disc Title:     BULLDOGS on BLURAY
Disc Size:      23 831 434 686 bytes
Protection:     AACS
BD-Java:        No
Extras:         50Hz Content
BDInfo:         0.5.8
PLAYLIST REPORT:
Name:                   00010.MPLS
Length:                 0:09:11.000 (h:m:s.ms)
Size:                   1 805 844 480 bytes
Total Bitrate:          26,22 Mbps
VIDEO:
Codec                   Bitrate             Description
-----                   -------             -----------
MPEG-4 AVC Video        24805 kbps          1080i / 25 fps / 16:9 / High Profile 4.1
AUDIO:
Codec                           Language        Bitrate         Description
-----                           --------        -------         -----------
Dolby Digital Audio             English         192 kbps        2.0 / 48 kHz / 192 kbps / DN -4dB
FILES:
Name            Time In         Length          Size            Total Bitrate
----            -------         ------          ----            -------------
00010.M2TS      0:00:00.000     0:09:11.000     1 805 844 480   26 219
CHAPTERS:
Number          Time In         Length          Avg Video Rate  Max 1-Sec Rate  Max 1-Sec Time  Max 5-Sec Rate  Max 5-Sec Time  Max 10Sec Rate  Max 10Sec Time  Avg Frame Size  Max Frame Size  Max Frame Time
------          -------         ------          --------------  --------------  --------------  --------------  --------------  --------------  --------------  --------------  --------------  --------------
1               0:00:00.000     0:09:11.000     24 805 kbps     52 419 kbps     00:00:01.440    33 838 kbps     00:00:23.960    31 521 kbps     00:00:19.080    124 026 bytes   568 270 bytes   00:00:01.960
STREAM DIAGNOSTICS:
File            PID             Type            Codec           Language                Seconds                 Bitrate                 Bytes           Packets
----            ---             ----            -----           --------                --------------          --------------          -------------   -----
00010.M2TS      4113 (0x1011)   0x1B            AVC                                     550,840                 24 812                  1 708 457 992   9 299 966
00010.M2TS      4352 (0x1100)   0x81            AC3             eng (English)           550,840                 192                     13 222 656      86 085
QUICK SUMMARY:
Disc Title: BULLDOGS on BLURAYDisc Size: 23 831 434 686 bytesProtection: AACSBD-Java: NoPlaylist: 00010.MPLSSize: 1 805 844 480 bytesLength: 0:09:11.000Total Bitrate: 26,22 MbpsVideo: MPEG-4 AVC Video / 24805 kbps / 1080i / 25 fps / 16:9 / High Profile 4.1Audio: English / Dolby Digital Audio / 2.0 / 48 kHz / 192 kbps / DN -4dB
********************PLAYLIST: 00011.MPLS********************
Total   Video
Title                                                           Codec   Length  Movie Size      Disc Size       Bitrate Bitrate Main Audio Track                          Secondary Audio Track
-----                                                           ------  ------- --------------  --------------  ------- ------- ------------------                        ---------------------
00011.MPLS                                                      AVC     0:08:37 775 421 952     23 831 434 686  12,00   11,18   DD AC3 2.0 192Kbps
DISC INFO:
Disc Title:     BULLDOGS on BLURAY
Disc Size:      23 831 434 686 bytes
Protection:     AACS
BD-Java:        No
Extras:         50Hz Content
BDInfo:         0.5.8
PLAYLIST REPORT:
Name:                   00011.MPLS
Length:                 0:08:37.000 (h:m:s.ms)
Size:                   775 421 952 bytes
Total Bitrate:          12,00 Mbps
VIDEO:
Codec                   Bitrate             Description
-----                   -------             -----------
MPEG-4 AVC Video        11178 kbps          1080i / 25 fps / 16:9 / High Profile 4.1
AUDIO:
Codec                           Language        Bitrate         Description
-----                           --------        -------         -----------
Dolby Digital Audio             English         192 kbps        2.0 / 48 kHz / 192 kbps / DN -4dB
FILES:
Name            Time In         Length          Size            Total Bitrate
----            -------         ------          ----            -------------
00011.M2TS      0:00:00.000     0:08:37.000     775 421 952     11 999
CHAPTERS:
Number          Time In         Length          Avg Video Rate  Max 1-Sec Rate  Max 1-Sec Time  Max 5-Sec Rate  Max 5-Sec Time  Max 10Sec Rate  Max 10Sec Time  Avg Frame Size  Max Frame Size  Max Frame Time
------          -------         ------          --------------  --------------  --------------  --------------  --------------  --------------  --------------  --------------  --------------  --------------
1               0:00:00.000     0:08:37.000     11 178 kbps     28 172 kbps     00:00:02.960    14 089 kbps     00:06:27.080    13 327 kbps     00:06:22.040    55 888 bytes    274 190 bytes   00:00:03.840
STREAM DIAGNOSTICS:
File            PID             Type            Codec           Language                Seconds                 Bitrate                 Bytes           Packets
----            ---             ----            -----           --------                --------------          --------------          -------------   -----
00011.M2TS      4113 (0x1011)   0x1B            AVC                                     516,880                 11 180                  722 356 992     3 939 827
00011.M2TS      4352 (0x1100)   0x81            AC3             eng (English)           516,880                 192                     12 407 040      80 775
QUICK SUMMARY:
Disc Title: BULLDOGS on BLURAYDisc Size: 23 831 434 686 bytesProtection: AACSBD-Java: NoPlaylist: 00011.MPLSSize: 775 421 952 bytesLength: 0:08:37.000Total Bitrate: 12,00 MbpsVideo: MPEG-4 AVC Video / 11178 kbps / 1080i / 25 fps / 16:9 / High Profile 4.1Audio: English / Dolby Digital Audio / 2.0 / 48 kHz / 192 kbps / DN -4dB
********************PLAYLIST: 00000.MPLS********************
Total   Video
Title                                                           Codec   Length  Movie Size      Disc Size       Bitrate Bitrate Main Audio Track                          Secondary Audio Track
-----                                                           ------  ------- --------------  --------------  ------- ------- ------------------                        ---------------------
00000.MPLS                                                      AVC     0:07:14 1 492 451 328   23 831 434 686  27,47   26,01   DD AC3 2.0 192Kbps
DISC INFO:
Disc Title:     BULLDOGS on BLURAY
Disc Size:      23 831 434 686 bytes
Protection:     AACS
BD-Java:        No
Extras:         50Hz Content
BDInfo:         0.5.8
PLAYLIST REPORT:
Name:                   00000.MPLS
Length:                 0:07:14.599 (h:m:s.ms)
Size:                   1 492 451 328 bytes
Total Bitrate:          27,47 Mbps
VIDEO:
Codec                   Bitrate             Description
-----                   -------             -----------
MPEG-4 AVC Video        26005 kbps          1080i / 25 fps / 16:9 / High Profile 4.1
AUDIO:
Codec                           Language        Bitrate         Description
-----                           --------        -------         -----------
Dolby Digital Audio             English         192 kbps        2.0 / 48 kHz / 192 kbps / DN -4dB
FILES:
Name            Time In         Length          Size            Total Bitrate
----            -------         ------          ----            -------------
00000.M2TS      0:00:00.000     0:07:14.599     1 492 451 328   27 473
CHAPTERS:
Number          Time In         Length          Avg Video Rate  Max 1-Sec Rate  Max 1-Sec Time  Max 5-Sec Rate  Max 5-Sec Time  Max 10Sec Rate  Max 10Sec Time  Avg Frame Size  Max Frame Size  Max Frame Time
------          -------         ------          --------------  --------------  --------------  --------------  --------------  --------------  --------------  --------------  --------------  --------------
1               0:00:00.000     0:07:14.599     26 005 kbps     53 571 kbps     00:00:04.759    31 189 kbps     00:03:14.679    29 040 kbps     00:05:14.840    130 026 bytes   575 033 bytes   00:00:05.320
STREAM DIAGNOSTICS:
File            PID             Type            Codec           Language                Seconds                 Bitrate                 Bytes           Packets
----            ---             ----            -----           --------                --------------          --------------          -------------   -----
00000.M2TS      4113 (0x1011)   0x1B            AVC                                     434,520                 26 010                  1 412 730 488   7 689 719
00000.M2TS      4352 (0x1100)   0x81            AC3             eng (English)           434,520                 192                     10 429 440      67 900
QUICK SUMMARY:
Disc Title: BULLDOGS on BLURAYDisc Size: 23 831 434 686 bytesProtection: AACSBD-Java: NoPlaylist: 00000.MPLSSize: 1 492 451 328 bytesLength: 0:07:14.599Total Bitrate: 27,47 MbpsVideo: MPEG-4 AVC Video / 26005 kbps / 1080i / 25 fps / 16:9 / High Profile 4.1Audio: English / Dolby Digital Audio / 2.0 / 48 kHz / 192 kbps / DN -4dB
********************PLAYLIST: 00005.MPLS********************
Total   Video
Title                                                           Codec   Length  Movie Size      Disc Size       Bitrate Bitrate Main Audio Track                          Secondary Audio Track
-----                                                           ------  ------- --------------  --------------  ------- ------- ------------------                        ---------------------
00005.MPLS                                                      AVC     0:07:13 1 483 800 576   23 831 434 686  27,41   25,95   DD AC3 2.0 192Kbps
DISC INFO:
Disc Title:     BULLDOGS on BLURAY
Disc Size:      23 831 434 686 bytes
Protection:     AACS
BD-Java:        No
Extras:         50Hz Content
BDInfo:         0.5.8
PLAYLIST REPORT:
Name:                   00005.MPLS
Length:                 0:07:13.040 (h:m:s.ms)
Size:                   1 483 800 576 bytes
Total Bitrate:          27,41 Mbps
VIDEO:
Codec                   Bitrate             Description
-----                   -------             -----------
MPEG-4 AVC Video        25948 kbps          1080i / 25 fps / 16:9 / High Profile 4.1
AUDIO:
Codec                           Language        Bitrate         Description
-----                           --------        -------         -----------
Dolby Digital Audio             English         192 kbps        2.0 / 48 kHz / 192 kbps / DN -4dB
FILES:
Name            Time In         Length          Size            Total Bitrate
----            -------         ------          ----            -------------
00005.M2TS      0:00:00.000     0:07:13.040     1 483 800 576   27 412
CHAPTERS:
Number          Time In         Length          Avg Video Rate  Max 1-Sec Rate  Max 1-Sec Time  Max 5-Sec Rate  Max 5-Sec Time  Max 10Sec Rate  Max 10Sec Time  Avg Frame Size  Max Frame Size  Max Frame Time
------          -------         ------          --------------  --------------  --------------  --------------  --------------  --------------  --------------  --------------  --------------  --------------
1               0:00:00.000     0:07:13.040     25 948 kbps     56 328 kbps     00:00:02.240    32 704 kbps     00:02:40.159    30 282 kbps     00:02:35.160    129 739 bytes   449 889 bytes   00:00:02.759
STREAM DIAGNOSTICS:
File            PID             Type            Codec           Language                Seconds                 Bitrate                 Bytes           Packets
----            ---             ----            -----           --------                --------------          --------------          -------------   -----
00005.M2TS      4113 (0x1011)   0x1B            AVC                                     432,960                 25 953                  1 404 549 965   7 645 175
00005.M2TS      4352 (0x1100)   0x81            AC3             eng (English)           432,960                 192                     10 391 808      67 655
QUICK SUMMARY:
Disc Title: BULLDOGS on BLURAYDisc Size: 23 831 434 686 bytesProtection: AACSBD-Java: NoPlaylist: 00005.MPLSSize: 1 483 800 576 bytesLength: 0:07:13.040Total Bitrate: 27,41 MbpsVideo: MPEG-4 AVC Video / 25948 kbps / 1080i / 25 fps / 16:9 / High Profile 4.1Audio: English / Dolby Digital Audio / 2.0 / 48 kHz / 192 kbps / DN -4dB
********************PLAYLIST: 00006.MPLS********************
Total   Video
Title                                                           Codec   Length  Movie Size      Disc Size       Bitrate Bitrate Main Audio Track                          Secondary Audio Track
-----                                                           ------  ------- --------------  --------------  ------- ------- ------------------                        ---------------------
00006.MPLS                                                      AVC     0:06:25 1 339 490 304   23 831 434 686  27,81   26,33   DD AC3 2.0 192Kbps
DISC INFO:
Disc Title:     BULLDOGS on BLURAY
Disc Size:      23 831 434 686 bytes
Protection:     AACS
BD-Java:        No
Extras:         50Hz Content
BDInfo:         0.5.8
PLAYLIST REPORT:
Name:                   00006.MPLS
Length:                 0:06:25.279 (h:m:s.ms)
Size:                   1 339 490 304 bytes
Total Bitrate:          27,81 Mbps
VIDEO:
Codec                   Bitrate             Description
-----                   -------             -----------
MPEG-4 AVC Video        26333 kbps          1080i / 25 fps / 16:9 / High Profile 4.1
AUDIO:
Codec                           Language        Bitrate         Description
-----                           --------        -------         -----------
Dolby Digital Audio             English         192 kbps        2.0 / 48 kHz / 192 kbps / DN -4dB
FILES:
Name            Time In         Length          Size            Total Bitrate
----            -------         ------          ----            -------------
00006.M2TS      0:00:00.000     0:06:25.279     1 339 490 304   27 813
CHAPTERS:
Number          Time In         Length          Avg Video Rate  Max 1-Sec Rate  Max 1-Sec Time  Max 5-Sec Rate  Max 5-Sec Time  Max 10Sec Rate  Max 10Sec Time  Avg Frame Size  Max Frame Size  Max Frame Time
------          -------         ------          --------------  --------------  --------------  --------------  --------------  --------------  --------------  --------------  --------------  --------------
1               0:00:00.000     0:06:25.279     26 333 kbps     55 046 kbps     00:00:01.039    31 001 kbps     00:00:00.919    29 356 kbps     00:01:38.000    131 664 bytes   472 194 bytes   00:00:01.799
STREAM DIAGNOSTICS:
File            PID             Type            Codec           Language                Seconds                 Bitrate                 Bytes           Packets
----            ---             ----            -----           --------                --------------          --------------          -------------   -----
00006.M2TS      4113 (0x1011)   0x1B            AVC                                     385,160                 26 341                  1 268 191 856   6 902 838
00006.M2TS      4352 (0x1100)   0x81            AC3             eng (English)           385,160                 192                     9 245 184       60 190
QUICK SUMMARY:
Disc Title: BULLDOGS on BLURAYDisc Size: 23 831 434 686 bytesProtection: AACSBD-Java: NoPlaylist: 00006.MPLSSize: 1 339 490 304 bytesLength: 0:06:25.279Total Bitrate: 27,81 MbpsVideo: MPEG-4 AVC Video / 26333 kbps / 1080i / 25 fps / 16:9 / High Profile 4.1Audio: English / Dolby Digital Audio / 2.0 / 48 kHz / 192 kbps / DN -4dB
********************PLAYLIST: 00013.MPLS********************
Total   Video
Title                                                           Codec   Length  Movie Size      Disc Size       Bitrate Bitrate Main Audio Track                          Secondary Audio Track
-----                                                           ------  ------- --------------  --------------  ------- ------- ------------------                        ---------------------
00013.MPLS                                                      AVC     0:04:48 962 592 768     23 831 434 686  26,67   25,24   DD AC3 2.0 192Kbps
DISC INFO:
Disc Title:     BULLDOGS on BLURAY
Disc Size:      23 831 434 686 bytes
Protection:     AACS
BD-Java:        No
Extras:         50Hz Content
BDInfo:         0.5.8
PLAYLIST REPORT:
Name:                   00013.MPLS
Length:                 0:04:48.720 (h:m:s.ms)
Size:                   962 592 768 bytes
Total Bitrate:          26,67 Mbps
VIDEO:
Codec                   Bitrate             Description
-----                   -------             -----------
MPEG-4 AVC Video        25239 kbps          1080i / 25 fps / 16:9 / High Profile 4.1
AUDIO:
Codec                           Language        Bitrate         Description
-----                           --------        -------         -----------
Dolby Digital Audio             English         192 kbps        2.0 / 48 kHz / 192 kbps / DN -4dB
FILES:
Name            Time In         Length          Size            Total Bitrate
----            -------         ------          ----            -------------
00013.M2TS      0:00:00.000     0:04:48.720     962 592 768     26 672
CHAPTERS:
Number          Time In         Length          Avg Video Rate  Max 1-Sec Rate  Max 1-Sec Time  Max 5-Sec Rate  Max 5-Sec Time  Max 10Sec Rate  Max 10Sec Time  Avg Frame Size  Max Frame Size  Max Frame Time
------          -------         ------          --------------  --------------  --------------  --------------  --------------  --------------  --------------  --------------  --------------  --------------
1               0:00:00.000     0:04:48.720     25 239 kbps     53 921 kbps     00:00:01.679    31 839 kbps     00:01:29.720    30 018 kbps     00:01:26.840    126 196 bytes   507 599 bytes   00:00:02.360
STREAM DIAGNOSTICS:
File            PID             Type            Codec           Language                Seconds                 Bitrate                 Bytes           Packets
----            ---             ----            -----           --------                --------------          --------------          -------------   -----
00013.M2TS      4113 (0x1011)   0x1B            AVC                                     288,600                 25 250                  910 882 673     4 958 341
00013.M2TS      4352 (0x1100)   0x81            AC3             eng (English)           288,600                 192                     6 928 128       45 105
QUICK SUMMARY:
Disc Title: BULLDOGS on BLURAYDisc Size: 23 831 434 686 bytesProtection: AACSBD-Java: NoPlaylist: 00013.MPLSSize: 962 592 768 bytesLength: 0:04:48.720Total Bitrate: 26,67 MbpsVideo: MPEG-4 AVC Video / 25239 kbps / 1080i / 25 fps / 16:9 / High Profile 4.1Audio: English / Dolby Digital Audio / 2.0 / 48 kHz / 192 kbps / DN -4dB
********************PLAYLIST: 00008.MPLS********************
Total   Video
Title                                                           Codec   Length  Movie Size      Disc Size       Bitrate Bitrate Main Audio Track                          Secondary Audio Track
-----                                                           ------  ------- --------------  --------------  ------- ------- ------------------                        ---------------------
00008.MPLS                                                      AVC     0:04:20 882 376 704     23 831 434 686  27,15   25,69   DD AC3 2.0 192Kbps
DISC INFO:
Disc Title:     BULLDOGS on BLURAY
Disc Size:      23 831 434 686 bytes
Protection:     AACS
BD-Java:        No
Extras:         50Hz Content
BDInfo:         0.5.8
PLAYLIST REPORT:
Name:                   00008.MPLS
Length:                 0:04:20.039 (h:m:s.ms)
Size:                   882 376 704 bytes
Total Bitrate:          27,15 Mbps
VIDEO:
Codec                   Bitrate             Description
-----                   -------             -----------
MPEG-4 AVC Video        25694 kbps          1080i / 25 fps / 16:9 / High Profile 4.1
AUDIO:
Codec                           Language        Bitrate         Description
-----                           --------        -------         -----------
Dolby Digital Audio             English         192 kbps        2.0 / 48 kHz / 192 kbps / DN -4dB
FILES:
Name            Time In         Length          Size            Total Bitrate
----            -------         ------          ----            -------------
00008.M2TS      0:00:00.000     0:04:20.039     882 376 704     27 146
CHAPTERS:
Number          Time In         Length          Avg Video Rate  Max 1-Sec Rate  Max 1-Sec Time  Max 5-Sec Rate  Max 5-Sec Time  Max 10Sec Rate  Max 10Sec Time  Avg Frame Size  Max Frame Size  Max Frame Time
------          -------         ------          --------------  --------------  --------------  --------------  --------------  --------------  --------------  --------------  --------------  --------------
1               0:00:00.000     0:04:20.039     25 694 kbps     54 546 kbps     00:00:01.799    32 747 kbps     00:00:01.720    30 073 kbps     00:02:19.040    128 472 bytes   452 623 bytes   00:00:02.480
STREAM DIAGNOSTICS:
File            PID             Type            Codec           Language                Seconds                 Bitrate                 Bytes           Packets
----            ---             ----            -----           --------                --------------          --------------          -------------   -----
00008.M2TS      4113 (0x1011)   0x1B            AVC                                     259,880                 25 710                  835 193 538     4 546 140
00008.M2TS      4352 (0x1100)   0x81            AC3             eng (English)           259,880                 192                     6 240 000       40 625
QUICK SUMMARY:
Disc Title: BULLDOGS on BLURAYDisc Size: 23 831 434 686 bytesProtection: AACSBD-Java: NoPlaylist: 00008.MPLSSize: 882 376 704 bytesLength: 0:04:20.039Total Bitrate: 27,15 MbpsVideo: MPEG-4 AVC Video / 25694 kbps / 1080i / 25 fps / 16:9 / High Profile 4.1Audio: English / Dolby Digital Audio / 2.0 / 48 kHz / 192 kbps / DN -4dB
********************PLAYLIST: 00012.MPLS********************
Total   Video
Title                                                           Codec   Length  Movie Size      Disc Size       Bitrate Bitrate Main Audio Track                          Secondary Audio Track
-----                                                           ------  ------- --------------  --------------  ------- ------- ------------------                        ---------------------
00012.MPLS                                                      AVC     0:04:14 841 285 632     23 831 434 686  26,49   25,06   DD AC3 2.0 192Kbps
DISC INFO:
Disc Title:     BULLDOGS on BLURAY
Disc Size:      23 831 434 686 bytes
Protection:     AACS
BD-Java:        No
Extras:         50Hz Content
BDInfo:         0.5.8
PLAYLIST REPORT:
Name:                   00012.MPLS
Length:                 0:04:14.039 (h:m:s.ms)
Size:                   841 285 632 bytes
Total Bitrate:          26,49 Mbps
VIDEO:
Codec                   Bitrate             Description
-----                   -------             -----------
MPEG-4 AVC Video        25065 kbps          1080i / 25 fps / 16:9 / High Profile 4.1
AUDIO:
Codec                           Language        Bitrate         Description
-----                           --------        -------         -----------
Dolby Digital Audio             English         192 kbps        2.0 / 48 kHz / 192 kbps / DN -4dB
FILES:
Name            Time In         Length          Size            Total Bitrate
----            -------         ------          ----            -------------
00012.M2TS      0:00:00.000     0:04:14.039     841 285 632     26 493
CHAPTERS:
Number          Time In         Length          Avg Video Rate  Max 1-Sec Rate  Max 1-Sec Time  Max 5-Sec Rate  Max 5-Sec Time  Max 10Sec Rate  Max 10Sec Time  Avg Frame Size  Max Frame Size  Max Frame Time
------          -------         ------          --------------  --------------  --------------  --------------  --------------  --------------  --------------  --------------  --------------  --------------
1               0:00:00.000     0:04:14.039     25 065 kbps     54 668 kbps     00:00:02.360    30 517 kbps     00:00:02.200    27 798 kbps     00:00:02.360    125 325 bytes   482 684 bytes   00:00:02.919
STREAM DIAGNOSTICS:
File            PID             Type            Codec           Language                Seconds                 Bitrate                 Bytes           Packets
----            ---             ----            -----           --------                --------------          --------------          -------------   -----
00012.M2TS      4113 (0x1011)   0x1B            AVC                                     253,920                 25 077                  795 936 489     4 332 685
00012.M2TS      4352 (0x1100)   0x81            AC3             eng (English)           253,920                 192                     6 095 616       39 685
QUICK SUMMARY:
Disc Title: BULLDOGS on BLURAYDisc Size: 23 831 434 686 bytesProtection: AACSBD-Java: NoPlaylist: 00012.MPLSSize: 841 285 632 bytesLength: 0:04:14.039Total Bitrate: 26,49 MbpsVideo: MPEG-4 AVC Video / 25065 kbps / 1080i / 25 fps / 16:9 / High Profile 4.1Audio: English / Dolby Digital Audio / 2.0 / 48 kHz / 192 kbps / DN -4dB
********************PLAYLIST: 00001.MPLS********************
Total   Video
Title                                                           Codec   Length  Movie Size      Disc Size       Bitrate Bitrate Main Audio Track                          Secondary Audio Track
-----                                                           ------  ------- --------------  --------------  ------- ------- ------------------                        ---------------------
00001.MPLS                                                      AVC     0:04:01 784 269 312     23 831 434 686  25,99   24,58   DD AC3 2.0 192Kbps
DISC INFO:
Disc Title:     BULLDOGS on BLURAY
Disc Size:      23 831 434 686 bytes
Protection:     AACS
BD-Java:        No
Extras:         50Hz Content
BDInfo:         0.5.8
PLAYLIST REPORT:
Name:                   00001.MPLS
Length:                 0:04:01.400 (h:m:s.ms)
Size:                   784 269 312 bytes
Total Bitrate:          25,99 Mbps
VIDEO:
Codec                   Bitrate             Description
-----                   -------             -----------
MPEG-4 AVC Video        24585 kbps          1080i / 25 fps / 16:9 / High Profile 4.1
AUDIO:
Codec                           Language        Bitrate         Description
-----                           --------        -------         -----------
Dolby Digital Audio             English         192 kbps        2.0 / 48 kHz / 192 kbps / DN -4dB
FILES:
Name            Time In         Length          Size            Total Bitrate
----            -------         ------          ----            -------------
00001.M2TS      0:00:00.000     0:04:01.400     784 269 312     25 991
CHAPTERS:
Number          Time In         Length          Avg Video Rate  Max 1-Sec Rate  Max 1-Sec Time  Max 5-Sec Rate  Max 5-Sec Time  Max 10Sec Rate  Max 10Sec Time  Avg Frame Size  Max Frame Size  Max Frame Time
------          -------         ------          --------------  --------------  --------------  --------------  --------------  --------------  --------------  --------------  --------------  --------------
1               0:00:00.000     0:04:01.400     24 585 kbps     54 838 kbps     00:00:09.559    31 804 kbps     00:00:09.399    28 627 kbps     00:00:09.320    122 924 bytes   541 933 bytes   00:00:10.120
STREAM DIAGNOSTICS:
File            PID             Type            Codec           Language                Seconds                 Bitrate                 Bytes           Packets
----            ---             ----            -----           --------                --------------          --------------          -------------   -----
00001.M2TS      4113 (0x1011)   0x1B            AVC                                     241,320                 24 593                  741 848 007     4 038 404
00001.M2TS      4352 (0x1100)   0x81            AC3             eng (English)           241,320                 192                     5 792 256       37 710
QUICK SUMMARY:
Disc Title: BULLDOGS on BLURAYDisc Size: 23 831 434 686 bytesProtection: AACSBD-Java: NoPlaylist: 00001.MPLSSize: 784 269 312 bytesLength: 0:04:01.400Total Bitrate: 25,99 MbpsVideo: MPEG-4 AVC Video / 24585 kbps / 1080i / 25 fps / 16:9 / High Profile 4.1Audio: English / Dolby Digital Audio / 2.0 / 48 kHz / 192 kbps / DN -4dB

Скриншоты меню

Скриншоты






Обложка диска

[Профиль] [ЛС]
Показать сообщения:    

Текущее время: Сегодня 00:39

Часовой пояс: GMT



Вы не можете начинать темы
Вы не можете отвечать на сообщения
Вы не можете редактировать свои сообщения
Вы не можете удалять свои сообщения
Вы не можете голосовать в опросах
Вы не можете прикреплять файлы к сообщениям
Вы не можете скачивать файлы