Теория хаоса / Order of Chaos (2010) BDRip 1080p от NovaLan

 
Автор Сообщение

sergej644 ®

Пол:

Стаж: 4 года 11 месяцев

Сообщений: 6044

Откуда: Soviet Union



Награды: Нет

Торрент-статистика

Создавать темы 17-Фев-2015 18:47

[Цитировать]

Название: Теория хаоса
Оригинальное название: Order of Chaos
Год выхода: 2010
Жанр: Триллер
Режиссер: Винс Вьелуф
В ролях: Майло Вентимилья, Рис Койро, Саманта Мэтис, Мими Роджерс, Сьюзэн Уорд, Чип Джослин, Анна Кэмпбелл, Райан Добсон, Анна Хайа, Мэгги Кили, Брайан Хаттон, Джо Фиске, Карен Остин
О фильме:
Законопослушный, респектабельный, наивный адвокат и муж испытает свой характер на прочность, когда коллега и сосед устроит проблемы дома и на работе. Не стоит забывать, что в этом мире нет ничего абсолютного, нет правильного и неправильного - всё зависит только от точки зрения… и иногда жизнь вынуждает становиться таким, каких ты всегда ненавидел.

Страна: США, Grizly Films
Продолжительность: 01:28:39
Озвучено: Профессиональный двухголосый (НТВ+) / Профессиональный двухголосый
Кодек: H.264
Качество: BDRip 1080p
Видео: MPEG-4 AVC, 10101 Кбит/с, 1920x796, 23.976 кадр/с
Перевод: Русский (AC3, 2 ch, 192 Кбит/с), (AC3, 6 ch, 448 Кбит/с), английский (DTS, 6 ch, 960 Кбит/с)
Субтитры: Английские

Инфо-файл

Полное имя : E:Раздачи_EOrder.of.Chaos.2010.x264.BDRip.1080p.NovaLan.mkv
Формат : Matroska
Версия формата : Version 4 / Version 2
Размер файла : 7,24 Гбайт
Продолжительность : 1 ч. 28 м.
Общий поток : 11,7 Мбит/сек
Название фильма : Order of Chaos 2010 - NovaLan
Дата кодирования : UTC 2015-02-11 16:00:34
Программа кодирования : mkvmerge v7.6.0 ('Garden of Dreams') 64bit built on Feb 8 2015 13:04:34
Библиотека кодирования : libebml v1.3.1 + libmatroska v1.4.2
DURATION : 01:25:05.533000000
NUMBER_OF_FRAMES : 1103
NUMBER_OF_BYTES : 30959
_STATISTICS_WRITING_APP : mkvmerge v7.6.0 ('Garden of Dreams') 64bit built on Feb 8 2015 13:04:34
_STATISTICS_WRITING_DATE_UTC : 2015-02-11 16:00:34
_STATISTICS_TAGS : BPS DURATION NUMBER_OF_FRAMES NUMBER_OF_BYTES
Видео
Идентификатор : 1
Формат : AVC
Формат/Информация : Advanced Video Codec
Профиль формата : High@L4.1
Параметр CABAC формата : Да
Параметр ReFrames формата : 4 кадра
Идентификатор кодека : V_MPEG4/ISO/AVC
Продолжительность : 1 ч. 28 м.
Битрейт : 10,1 Мбит/сек
Ширина : 1920 пикселей
Высота : 796 пикселей
Соотношение сторон : 2,40:1
Частота кадров : 23,976 кадра/сек
Цветовое пространство : YUV
Субдискретизация насыщенности : 4:2:0
Битовая глубина : 8 бит
Тип развёртки : Прогрессивная
Бит/(Пиксели*Кадры) : 0.276
Размер потока : 6,11 Гбайт (84%)
Заголовок : Sergei7721
Библиотека кодирования : x264 core 133 r2334 a3ac64b
Настройки программы : cabac=1 / ref=4 / deblock=1:-1:-1 / analyse=0x3:0x113 / me=umh / subme=11 / psy=1 / psy_rd=1.00:0.20 / mixed_ref=1 / me_range=24 / chroma_me=1 / trellis=2 / 8x8dct=1 / cqm=0 / deadzone=21,11 / fast_pskip=0 / chroma_qp_offset=-3 / threads=12 / lookahead_threads=1 / sliced_threads=0 / nr=0 / decimate=0 / interlaced=0 / bluray_compat=0 / constrained_intra=0 / bframes=6 / b_pyramid=2 / b_adapt=2 / b_bias=0 / direct=3 / weightb=1 / open_gop=0 / weightp=2 / keyint=240 / keyint_min=23 / scenecut=40 / intra_refresh=0 / rc_lookahead=40 / rc=2pass / mbtree=0 / bitrate=10101 / ratetol=1.0 / qcomp=0.60 / qpmin=0 / qpmax=69 / qpstep=4 / cplxblur=20.0 / qblur=0.5 / vbv_maxrate=50000 / vbv_bufsize=62500 / nal_hrd=none / ip_ratio=1.40 / pb_ratio=1.30 / aq=1:1.00
Default : Да
Forced : Нет
DURATION : 01:28:39.147000000
NUMBER_OF_FRAMES : 127532
NUMBER_OF_BYTES : 6711845573
_STATISTICS_WRITING_APP : mkvmerge v7.6.0 ('Garden of Dreams') 64bit built on Feb 8 2015 13:04:34
_STATISTICS_WRITING_DATE_UTC : 2015-02-11 16:00:34
_STATISTICS_TAGS : BPS DURATION NUMBER_OF_FRAMES NUMBER_OF_BYTES
Аудио #1
Идентификатор : 2
Формат : AC-3
Формат/Информация : Audio Coding 3
Расширение режима : CM (complete main)
Параметр Endianness формата : Big
Идентификатор кодека : A_AC3
Продолжительность : 1 ч. 28 м.
Вид битрейта : Постоянный
Битрейт : 192 Кбит/сек
Каналы : 2 канала
Расположение каналов : Front: L R
Частота : 48,0 КГц
Битовая глубина : 16 бит
Метод сжатия : С потерями
Размер потока : 122 Мбайт (2%)
Язык : Russian
Default : Да
Forced : Нет
Аудио #2
Идентификатор : 3
Формат : AC-3
Формат/Информация : Audio Coding 3
Расширение режима : CM (complete main)
Параметр Endianness формата : Big
Идентификатор кодека : A_AC3
Продолжительность : 1 ч. 28 м.
Вид битрейта : Постоянный
Битрейт : 448 Кбит/сек
Каналы : 6 каналов
Расположение каналов : Front: L C R, Side: L R, LFE
Частота : 48,0 КГц
Битовая глубина : 16 бит
Метод сжатия : С потерями
Размер потока : 284 Мбайт (4%)
Язык : Russian
Default : Нет
Forced : Нет
Аудио #3
Идентификатор : 4
Формат : DTS
Формат/Информация : Digital Theater Systems
Идентификатор кодека : A_DTS
Продолжительность : 1 ч. 28 м.
Вид битрейта : Постоянный
Битрейт : 960 Кбит/сек
Каналы : 6 каналов
Расположение каналов : Front: L C R, Side: L R, LFE
Частота : 48,0 КГц
Битовая глубина : 16 бит
Метод сжатия : С потерями
Размер потока : 609 Мбайт (8%)
Язык : English
Default : Нет
Forced : Нет
Текст
Идентификатор : 5
Формат : UTF-8
Идентификатор кодека : S_TEXT/UTF8
Идентификатор кодека/Информация : UTF-8 Plain Text
Язык : English
Default : Нет
Forced : Нет
Меню
00:00:00.000 : en:00:00:00.000
00:09:42.206 : en:00:09:42.206
00:25:29.277 : en:00:25:29.277
00:34:10.715 : en:00:34:10.715
00:45:50.080 : en:00:45:50.080
00:54:47.242 : en:00:54:47.242
01:06:40.204 : en:01:06:40.204
01:19:22.090 : en:01:19:22.090
01:25:05.308 : en:01:25:05.308
01:28:38.938 : en:01:28:38.938
Релиз группа NovaLan
Автор релиза Sergei7721

Скриншоты

[Профиль] [ЛС]
Кто просматривает тему:

Форум Тема Автор Размер
Фантастика и фэнтези Горькавый Ник - Астровитянка 02. Теория катастрофы (2015) MP3 Swager 1.04 GB
Фильмы (HD DVD, Blu-ray и BDRemux) Джек Райан: Теория хаоса / Jack Ryan: Shadow Recruit (2014) BDRemux 1080p | Лицензия, Гаврилов Zithylord 30 GB
Фильмы 2014 года Джек Райан: Теория хаоса / Jack Ryan: Shadow Recruit (Кеннет Брана / Kenneth Branagh) [2014, США, Россия, боевик, триллер, детектив, BDRip-AVC] Dub + Sub Eng, Rus, Ukr + Original Eng sergej644 1.46 GB
Фильмы 2014 года Джек Райан: Теория хаоса / Jack Ryan: Shadow Recruit (Кеннет Брэна / Kenneth Branagh) [2014, США, Россия, Боевик, триллер, драма, BDRip-AVC] Dub (BD CEE) + Sub Rus, Eng + Original Eng bot 2.18 GB
Научная и техническая литература Книжная серия: Наука. Величайшие теории [12 книг] (2015) DJVU, PDF BOSS 183 MB
Фантастика и фэнтези Людмила Астахова, Яна Горшкова - Теория заговора (2015) MP3 Swager 1.07 GB
Отечественные cериалы Метеорит [01-08 из 08] (2015) HDTV 1080i достали все 20.8 GB
Отечественные cериалы Метеорит [01-08 из 08] (2015) HDTVRip достали все 4.3 GB
Показать сообщения:    

Текущее время: Сегодня 14:21

Часовой пояс: GMT



Вы не можете начинать темы
Вы не можете отвечать на сообщения
Вы не можете редактировать свои сообщения
Вы не можете удалять свои сообщения
Вы не можете голосовать в опросах
Вы не можете прикреплять файлы к сообщениям
Вы не можете скачивать файлы