Теория убийств / Kill Theory (Крис Мур / Chris Moore) [2009, США, ужасы, триллер, BDRip] Dub + Original Eng + subs (rus, eng)

 
Автор Сообщение

TorrentFilm ®

Пол:

Стаж: 2 года

Сообщений: 7741



Награды: Нет

Торрент-статистика

Создавать темы 01-Фев-2015 00:00

[Цитировать]

Теория убийств / Kill Theory- Год выпуска: 2009
Страна: США
Жанр: ужасы, триллер
Продолжительность: 01:25:13
Перевод: Профессиональный (полное дублирование)
+ Оригинальная звуковая дорожка (отдельно)
Cубтитры: Русские, Английские (внешние srt*)-Режиссер: Крис Мур / Chris Moore
В ролях: Дон МакМанус, Райанн Дузич, Тедди Данн, Дэниел Фрэнзиси, Агнес Брукнер, Патрик Флюгер, Стеффи Викенс, Тео Росси, Тэрин Мэннинг, Кевин Гейдж, Тревер О’Брайэн
О фильме: Группа друзей отправляются в небольшую гостиницу, чтобы отпраздновать окончание колледжа, но попадают в ловушку маньяка-убийцы: к 6-ти утра следующего дня только один из них останется в живых, но если более чем один из них будет жив, то умрут все. Поэтому каждый должен стать убийцей, чтобы выжить.-Релиз:
Автор: yaroslaigor
Качество: BDRip (источник: rashstep / BD-Remux / 1080p)
Формат: AVI
Видео: 704x384 (1.83:1), 23.976 fps, XviD build 65 ~1982 kbps avg, 0.31 bit/pixel
Аудио #1: 48 kHz, AC3 Dolby Digital, 3/2 (L,C,R,l,r) + LFE ch, ~448.00 kbps avg dub
Аудио #2: 48 kHz, AC3 Dolby Digital, 3/2 (L,C,R,l,r) + LFE ch, ~448.00 kbps avg eng (отдельно)
Размер: 1487.73 Mb (1/3 DVD-R)
Скачать: Семпл-

Кадры из фильма


-

Mi

Формат : AVI
Формат/Информация : Audio Video Interleave
Размер файла : 1,45 Гбайт
Продолжительность : 1 ч. 25 м.
Общий поток : 2440 Кбит/сек
Название фильма : Теория убийств / Kill Theory (2009) BDRip
Режиссёр : yaroslaigor
Жанр : ужасы, триллер
Программа кодирования : VirtualDubMod 1.5.10.2 (build 2542/release)
Примечание : 27.01.2015
Видео
Идентификатор : 0
Формат : MPEG-4 Visual
Профиль формата : Advanced Simple@L5
Параметр BVOP формата : 1
Параметр QPel формата : Нет
Параметр GMC формата : Без точки перехода
Параметр матрицы формата : Выборочная
Идентификатор кодека : XVID
Идентификатор кодека/Подсказка : XviD
Продолжительность : 1 ч. 25 м.
Битрейт : 1983 Кбит/сек
Ширина : 704 пикселя
Высота : 384 пикселя
Соотношение сторон : 1,85:1
Частота кадров : 23,976 кадра/сек
Цветовое пространство : YUV
Субдискретизация насыщенности : 4:2:0
Битовая глубина : 8 бит
Тип развёртки : Прогрессивная
Метод сжатия : С потерями
Бит/(Пиксели*Кадры) : 0.306
Размер потока : 1,18 Гбайт (81%)
Библиотека кодирования : XviD 65
Аудио
Идентификатор : 1
Формат : AC-3
Формат/Информация : Audio Coding 3
Расширение режима : CM (complete main)
Параметр Endianness формата : Big
Идентификатор кодека : 2000
Продолжительность : 1 ч. 25 м.
Вид битрейта : Постоянный
Битрейт : 448 Кбит/сек
Каналы : 6 каналов
Расположение каналов : Front: L C R, Side: L R, LFE
Частота : 48,0 КГц
Битовая глубина : 16 бит
Метод сжатия : С потерями
Размер потока : 273 Мбайт (18%)
Выравнивание : Разделение по промежуткам
Продолжительность промежутка : 42 мс. (1,00 видеокадр)
Время предзагрузки промежутка : 500 мс.
-
[Профиль] [ЛС]

Создавать темы 06-Авг-2015 22:47 (спустя 6 месяцев 5 дней)

Топик был перенесен из форума Фильмы до 2014 года в форум Фильмы до 2012 года
sergej644
 

Создавать темы 12-Июн-2016 08:48 (спустя 1 год 4 месяца)

Топик был перенесен из форума Фильмы 2011 года в форум Фильмы 2009 года
Russian Mafia
 
Кто просматривает тему:

Форум Тема Автор Размер
Фантастика и фэнтези Горькавый Ник - Астровитянка 02. Теория катастрофы (2015) MP3 Swager 1.04 GB
Фильмы (HD DVD, Blu-ray и BDRemux) Джек Райан: Теория хаоса / Jack Ryan: Shadow Recruit (2014) BDRemux 1080p | Лицензия, Гаврилов Zithylord 30 GB
Фильмы 2014 года Джек Райан: Теория хаоса / Jack Ryan: Shadow Recruit (Кеннет Брана / Kenneth Branagh) [2014, США, Россия, боевик, триллер, детектив, BDRip-AVC] Dub + Sub Eng, Rus, Ukr + Original Eng sergej644 1.46 GB
Фильмы 2014 года Джек Райан: Теория хаоса / Jack Ryan: Shadow Recruit (Кеннет Брэна / Kenneth Branagh) [2014, США, Россия, Боевик, триллер, драма, BDRip-AVC] Dub (BD CEE) + Sub Rus, Eng + Original Eng bot 2.18 GB
Научная и техническая литература Книжная серия: Наука. Величайшие теории [12 книг] (2015) DJVU, PDF BOSS 183 MB
Фантастика и фэнтези Людмила Астахова, Яна Горшкова - Теория заговора (2015) MP3 Swager 1.07 GB
Отечественные cериалы Метеорит [01-08 из 08] (2015) HDTV 1080i достали все 20.8 GB
Отечественные cериалы Метеорит [01-08 из 08] (2015) HDTVRip достали все 4.3 GB
Показать сообщения:    

Текущее время: Сегодня 00:47

Часовой пояс: GMT



Вы не можете начинать темы
Вы не можете отвечать на сообщения
Вы не можете редактировать свои сообщения
Вы не можете удалять свои сообщения
Вы не можете голосовать в опросах
Вы не можете прикреплять файлы к сообщениям
Вы не можете скачивать файлы