Теория заговора / Zulu (Жером Салль)[2013, Триллер, Драма, Криминал, HDRip] MVO

 
Автор Сообщение

sergej644 ®

Пол:

Стаж: 4 года 11 месяцев

Сообщений: 6043

Откуда: Soviet Union



Награды: Нет

Торрент-статистика

Создавать темы 18-Окт-2014 19:22

[Цитировать]

-Теория заговора / Zulu (2013) HDRip- Год выпуска: 2013
Производство: Франция, ЮАР
Жанр: Триллер, Драма, Криминал
Описание фильма:
Южная Африка. Кейптаун. 2012 год. Отдел серийных убийств полиции Кейптауна начинает расследование зверского убийства белой девушки. Казавшееся тривиальным преступление быстро превращается в круговорот перестрелок и смертей, ибо в деле оказываются замешаны сначала торговцы наркотиками, потом банды совершенно отмороженных головорезов, а дальше полицейские выходят на интересы могущественной транснациональной корпорации.
В жестком, динамичном и бескомпромиссном криминальном триллере, где кровь льется рекой, героям трудно выжить и не всем это удается. Но детективы Али Сокил и Брайан Ипкин идут до конца, какую бы цену им не пришлось за это заплатить.
Режиссер: Жером Салль
Продюсер: Ришар Гранпьер, Вивьен Асланян, Фредерик Донекуан
Актеры: Орландо Блум, Форест Уитакер, Таня ван Граан, Наташа Лоринг, Роксанна Прентис, Патрик Листер, Свен Рюйгрок, Келси Иган, Конрад Кемп, Лизе Слэббер
Перевод: Многоголосый закадровый, профессиональный
Субтитры: Отсутствуют

Дата мировой премьеры: 26 мая 2013
Дата российской премьеры: 25 сентября 2014, «Top Film Distribution»
Продолжительность: 01:46:41
Качество видео: HDRip
Видеокодек: Xvid
Битрейт видео: ~1845 kb/s
Размер кадра: 720x304
Аудио 1: АС3 2.0, 448 kb/s, Русский (официальная озвучка)
Аудио 2: АС3 5.1, 448 kb/s, Английский
Сэмпл: Скачать

MediaInfo:

Общее
Полное имя : C:Торренты\Теория заговора.2014.P.HDRip.avi
Формат : AVI
Формат/Информация : Audio Video Interleave
Профиль формата : OpenDML
Размер файла : 2,06 Гбайт
Продолжительность : 1 ч. 46 м.
Общий поток : 2759 Кбит/сек
Программа кодирования : VirtualDubMod 1.5.10.2 (build 2540/release)
Библиотека кодирования : VirtualDubMod build 2540/release
Видео
Идентификатор : 0
Формат : MPEG-4 Visual
Профиль формата : Advanced Simple@L5
Параметр BVOP формата : 2
Параметр QPel формата : Нет
Параметр GMC формата : Без точки перехода
Параметр матрицы формата : Выборочная
Идентификатор кодека : XVID
Идентификатор кодека/Подсказка : XviD
Продолжительность : 1 ч. 46 м.
Битрейт : 1845 Кбит/сек
Ширина : 720 пикселей
Высота : 304 пикселя
Соотношение сторон : 2,35:1
Частота кадров : 24,000 кадра/сек
Цветовое пространство : YUV
Субдискретизация насыщенности : 4:2:0
Битовая глубина : 8 бит
Тип развёртки : Прогрессивная
Метод сжатия : С потерями
Бит/(Пиксели*Кадры) : 0.351
Размер потока : 1,37 Гбайт (67%)
Библиотека кодирования : XviD 1.2.1 (UTC 2008-12-04)
Аудио #1
Идентификатор : 1
Формат : AC-3
Формат/Информация : Audio Coding 3
Расширение режима : CM (complete main)
Параметр Endianness формата : Big
Идентификатор кодека : 2000
Продолжительность : 1 ч. 46 м.
Вид битрейта : Постоянный
Битрейт : 448 Кбит/сек
Каналы : 2 канала
Расположение каналов : Front: L R
Частота : 44,1 КГц
Битовая глубина : 16 бит
Метод сжатия : С потерями
Размер потока : 342 Мбайт (16%)
Выравнивание : Разделение по промежуткам
Продолжительность промежутка : 42 мс. (1,00 видеокадр)
Время предзагрузки промежутка : 500 мс.
Аудио #2
Идентификатор : 2
Формат : AC-3
Формат/Информация : Audio Coding 3
Расширение режима : CM (complete main)
Параметр Endianness формата : Big
Идентификатор кодека : 2000
Продолжительность : 1 ч. 46 м.
Вид битрейта : Постоянный
Битрейт : 448 Кбит/сек
Каналы : 6 каналов
Расположение каналов : Front: L C R, Side: L R, LFE
Частота : 48,0 КГц
Битовая глубина : 16 бит
Метод сжатия : С потерями
Размер потока : 342 Мбайт (16%)
Выравнивание : Разделение по промежуткам
Продолжительность промежутка : 42 мс. (1,00 видеокадр)
Время предзагрузки промежутка : 500 мс.
Скриншоты:
[Профиль] [ЛС]
Кто просматривает тему:

Форум Тема Автор Размер
Фантастика и фэнтези Горькавый Ник - Астровитянка 02. Теория катастрофы (2015) MP3 Swager 1.04 GB
Фильмы (HD DVD, Blu-ray и BDRemux) Джек Райан: Теория хаоса / Jack Ryan: Shadow Recruit (2014) BDRemux 1080p | Лицензия, Гаврилов Zithylord 30 GB
Фильмы 2014 года Джек Райан: Теория хаоса / Jack Ryan: Shadow Recruit (Кеннет Брана / Kenneth Branagh) [2014, США, Россия, боевик, триллер, детектив, BDRip-AVC] Dub + Sub Eng, Rus, Ukr + Original Eng sergej644 1.46 GB
Фильмы 2014 года Джек Райан: Теория хаоса / Jack Ryan: Shadow Recruit (Кеннет Брэна / Kenneth Branagh) [2014, США, Россия, Боевик, триллер, драма, BDRip-AVC] Dub (BD CEE) + Sub Rus, Eng + Original Eng bot 2.18 GB
Научная и техническая литература Книжная серия: Наука. Величайшие теории [12 книг] (2015) DJVU, PDF BOSS 183 MB
Фантастика и фэнтези Людмила Астахова, Яна Горшкова - Теория заговора (2015) MP3 Swager 1.07 GB
Отечественные cериалы Метеорит [01-08 из 08] (2015) HDTV 1080i достали все 20.8 GB
Отечественные cериалы Метеорит [01-08 из 08] (2015) HDTVRip достали все 4.3 GB
Показать сообщения:    

Текущее время: Сегодня 22:33

Часовой пояс: GMT



Вы не можете начинать темы
Вы не можете отвечать на сообщения
Вы не можете редактировать свои сообщения
Вы не можете удалять свои сообщения
Вы не можете голосовать в опросах
Вы не можете прикреплять файлы к сообщениям
Вы не можете скачивать файлы