Теория заговора. Стоматологи (Андрей Сычов) [2015, Документальный, HDTV 1080i]

 
Автор Сообщение

TorrentFilm ®

Пол:

Стаж: 1 год 11 месяцев

Сообщений: 7741



Награды: Нет

Торрент-статистика

Создавать темы 28-Мар-2015 00:01

[Цитировать]

Теория заговора. Стоматологи
Год выпуска: 2015
Страна: Россия
Студия: Первый канал
Жанр: Документальный
Продолжительность: 00:51:59
Перевод: Не требуется
Русские субтитры: нет
Режиссер: Андрей Сычов
Описание: Посещать стоматолога нужно каждые полгода. Так нас уверяют врачи. И это логично: чем раньше приступим к лечению, тем лучше. Одна незадача: стоматология - не точная наука. У каждого врача свой взгляд на здоровье, или вернее, на кошелек пациента. Иногда после приема стоматолога складывается ощущение, что проблем больше, чем на самом деле. У начинающей певицы Жени Тополь денег на идеальную улыбку пока нет, но за зубами она следит тщательно. Мы отправили её по нескольким поликлиникам на первичный осмотр. Женя попросила врачей составить ей план лечения, если таковое понадобится. Перед этим певица посетила судебно-медицинскую экспертизу, где ей выдали справку о том, что у неё всё в порядке с зубами. Мы расскажем, какой вердикт вынесли девушке стоматологи. Как вы думаете, где нас больше "обдирают": в сетевых стоматологиях, в "лакшери"-стоматологиях или обычных платных кабинетах "шаговой доступности?" Мы узнали это, проведя собственный эксперимент. По данным Общественного совета по защите прав пациентов, больше половины судебных исков к стоматологам разваливаются в суде. Пациенты пытаются доказать, что им плохо вылечили зуб, пломба выпала через неделю, а зубной протез сломался. Но в законе не сказано, что значит "хорошо вылеченный зуб" и сколько должна простоять пломба. Мы расскажем, как правильно составить иск в суд. Всё хорошее и надёжное у нас ассоциируется с "заграницей". Сейчас популярный трэнд – немецкие, французские и американские стоматологии. Их ценник выше "отечественных". Мы узнали, в чём их принципиальное отличие от обычной платной стоматологической клиники. А помог нам в этом иностранец, которого мы отправили в подобную клинику. Найдут ли врачи с "земляком" общий язык?
Доп. информация: Релиз -

Рип чистый. Без посторонних надписей. Выкладывается как есть.
Качество: HDTV 1080i
Контейнер: TS
Видео кодек: AVC
Аудио кодек: MP2, AC3
Видео: 1920x1080 (16:9) 25.000 fps ~ 10.1 Mbps, 0.195 bit/pixel
Аудио 1: MPEG Audio 48000Hz stereo 192 Кбит/сек
Аудио 2: AC3, 6 channels, 48000Hz, 384 Кбит/сек

Скриншоты

MI

GeneralID : 1 (0x1)Complete name : H:\ВЫКЛАДКА\Теория заговора. Стоматологи (2015, Документальный, HDTV 1080i) (MYDIMKA).tsFormat : MPEG-TSFile size : 3.84 GiBDuration : 51mn 59sOverall bit rate mode : VariableOverall bit rate : 10.6 Mbps
VideoID : 1603 (0x643)Menu ID : 603 (0x25B)Format : AVCFormat/Info : Advanced Video CodecFormat profile : High@L4.0Format settings, CABAC : YesFormat settings, ReFrames : 3 framesCodec ID : 27Duration : 51mn 59sBit rate : 9 462 KbpsWidth : 1 920 pixelsHeight : 1 080 pixelsDisplay aspect ratio : 16:9Frame rate : 25.000 fpsStandard : ComponentColor space : YUVChroma subsampling : 4:2:0Bit depth : 8 bitsScan type : InterlacedScan order : Top Field FirstBits/(Pixel*Frame) : 0.183Stream size : 3.44 GiB (90%)Color primaries : BT.709Transfer characteristics : BT.709Matrix coefficients : BT.709
Audio #1ID : 2603 (0xA2B)Menu ID : 603 (0x25B)Format : AC-3Format/Info : Audio Coding 3Mode extension : CM (complete main)Format settings, Endianness : BigCodec ID : 6Duration : 51mn 59sBit rate mode : ConstantBit rate : 384 KbpsChannel(s) : 6 channelsChannel positions : Front: L C R, Side: L R, LFESampling rate : 48.0 KHzBit depth : 16 bitsCompression mode : LossyDelay relative to video : -120msStream size : 143 MiB (4%)Language : Russian
Audio #2ID : 2604 (0xA2C)Menu ID : 603 (0x25B)Format : MPEG AudioFormat version : Version 1Format profile : Layer 2Codec ID : 3Duration : 51mn 59sBit rate mode : ConstantBit rate : 192 KbpsChannel(s) : 2 channelsSampling rate : 48.0 KHzCompression mode : LossyDelay relative to video : -120msStream size : 71.4 MiB (2%)Language : Russian
[Профиль] [ЛС]
Кто просматривает тему:

Форум Тема Автор Размер
Фантастика и фэнтези Горькавый Ник - Астровитянка 02. Теория катастрофы (2015) MP3 Swager 1.04 GB
Фильмы (HD DVD, Blu-ray и BDRemux) Джек Райан: Теория хаоса / Jack Ryan: Shadow Recruit (2014) BDRemux 1080p | Лицензия, Гаврилов Zithylord 30 GB
Фильмы 2014 года Джек Райан: Теория хаоса / Jack Ryan: Shadow Recruit (Кеннет Брана / Kenneth Branagh) [2014, США, Россия, боевик, триллер, детектив, BDRip-AVC] Dub + Sub Eng, Rus, Ukr + Original Eng sergej644 1.46 GB
Фильмы 2014 года Джек Райан: Теория хаоса / Jack Ryan: Shadow Recruit (Кеннет Брэна / Kenneth Branagh) [2014, США, Россия, Боевик, триллер, драма, BDRip-AVC] Dub (BD CEE) + Sub Rus, Eng + Original Eng bot 2.18 GB
Научная и техническая литература Книжная серия: Наука. Величайшие теории [12 книг] (2015) DJVU, PDF BOSS 183 MB
Фантастика и фэнтези Людмила Астахова, Яна Горшкова - Теория заговора (2015) MP3 Swager 1.07 GB
Отечественные cериалы Метеорит [01-08 из 08] (2015) HDTV 1080i достали все 20.8 GB
Отечественные cериалы Метеорит [01-08 из 08] (2015) HDTVRip достали все 4.3 GB
Показать сообщения:    

Текущее время: Сегодня 09:56

Часовой пояс: GMT



Вы не можете начинать темы
Вы не можете отвечать на сообщения
Вы не можете редактировать свои сообщения
Вы не можете удалять свои сообщения
Вы не можете голосовать в опросах
Вы не можете прикреплять файлы к сообщениям
Вы не можете скачивать файлы