Теория Заговора. Морепродукты (Алексей Булейко, Кирилл Ващенко) [2015, Документальный, HDTV 720p]

 
Автор Сообщение

TorrentFilm ®

Пол:

Стаж: 2 года

Сообщений: 7741



Награды: Нет

Торрент-статистика

Создавать темы 15-Июн-2015 00:05

[Цитировать]

Теория Заговора. Морепродукты- Год выпуска: 2015
Страна: Россия
Студия: Первый Канал HD | ЗАО «Среда обитания»
Жанр: Документальный
Продолжительность: 0:44:34
Автор и руководитель цикла: Андрей Сычев
Режиссеры: Алексей Булейко, Кирилл Ващенко
Ведущий: Игорь Савочкин-Описание: Каждый год россияне тратят на рыбу почти 900 миллиардов рублей! При этом две трети этих денег уходит на покупку не самой рыбы, а морских деликатесов. Они – самые дорогие. И здесь больше всего желающих нас обмануть.
Говорят, что самый простой способ определить качество еды – это дать попробовать домашнему питомцу. Он мигом почувствует неладное.-Автор рипа: lrn
Автор записи: riper.am
Сэмпл: sendfile-Тип релиза: HDTV 720p
Контейнер: MKV
Видео: 1280x720 (16:9), 25,000 fps, H264, ~4000 kbps avg, ~0.174 bit/pixel
Аудио: 48 kHz, AC3 Dolby Digital, 2/0 (L,R) ch, ~192.00 kbps avg-

MediaInfo

GeneralUnique ID : 173828484313566183082647458272285234363 (0x82C625F7D21C09A8BFD69ABEA6DB14BB)Complete name : E:\uTorrent.Temp\Temp\Teoriya.Zagovora.(2015.06.14).HDTV.720p.x264-lrn.mkvFormat : MatroskaFormat version : Version 4 / Version 2File size : 1.31 GiBDuration : 44mn 34sOverall bit rate : 4 193 KbpsMovie name : Teoriya.Zagovora.(2015.06.14).HDTV.720p.x264-lrnEncoded date : UTC 2010-02-22 21:41:31Writing application : mkvmerge v5.9.0 ('On The Loose') built on Dec 9 2012 15:37:01Writing library : libebml v1.3.0 + libmatroska v1.4.0DURATION : 00:44:34.840000000NUMBER_OF_FRAMES : 66871NUMBER_OF_BYTES : 1337259535_STATISTICS_WRITING_APP : mkvmerge v7.7.0 ('Six Voices') 32bit built on Feb 28 2015 23:23:00_STATISTICS_WRITING_DATE_UT : 2015-06-14 15:45:06_STATISTICS_TAGS : BPS DURATION NUMBER_OF_FRAMES NUMBER_OF_BYTES
VideoID : 1Format : AVCFormat/Info : Advanced Video CodecFormat profile : High@L4.1Format settings, CABAC : YesFormat settings, ReFrames : 8 framesCodec ID : V_MPEG4/ISO/AVCDuration : 44mn 34sBit rate : 4 000 KbpsWidth : 1 280 pixelsHeight : 720 pixelsDisplay aspect ratio : 16:9Frame rate mode : ConstantFrame rate : 25.000 fpsColor space : YUVChroma subsampling : 4:2:0Bit depth : 8 bitsScan type : ProgressiveBits/(Pixel*Frame) : 0.174Stream size : 1.22 GiB (93%)Writing library : x264 core 146 r2538 121396cEncoding settings : cabac=1 / ref=8 / deblock=1:-3:-3 / analyse=0x3:0x133 / me=umh / subme=9 / psy=1 / psy_rd=1.00:0.00 / mixed_ref=1 / me_range=32 / chroma_me=1 / trellis=2 / 8x8dct=1 / cqm=0 / deadzone=21,11 / fast_pskip=1 / chroma_qp_offset=-2 / threads=12 / lookahead_threads=2 / sliced_threads=0 / nr=0 / decimate=1 / interlaced=0 / bluray_compat=0 / constrained_intra=0 / bframes=8 / b_pyramid=2 / b_adapt=2 / b_bias=0 / direct=3 / weightb=1 / open_gop=0 / weightp=2 / keyint=250 / keyint_min=25 / scenecut=40 / intra_refresh=0 / rc_lookahead=50 / rc=2pass / mbtree=1 / bitrate=4000 / ratetol=1.0 / qcomp=0.60 / qpmin=0 / qpmax=69 / qpstep=4 / cplxblur=20.0 / qblur=0.5 / vbv_maxrate=62500 / vbv_bufsize=78125 / nal_hrd=none / filler=0 / ip_ratio=1.40 / aq=1:1.00Default : YesForced : No
AudioID : 2Format : AC-3Format/Info : Audio Coding 3Mode extension : CM (complete main)Format settings, Endianness : BigCodec ID : A_AC3Duration : 44mn 34sBit rate mode : ConstantBit rate : 192 KbpsChannel(s) : 2 channelsChannel positions : Front: L RSampling rate : 48.0 KHzCompression mode : LossyStream size : 61.2 MiB (5%)Language : RussianDefault : YesForced : No

x264 log

raw [info]: 1280x720p 1:1 @ 25/1 fps (cfr)x264 [info]: using SAR=1/1x264 [info]: using cpu capabilities: MMX2 SSE2Fast SSSE3 SSE4.2 AVXx264 [info]: profile High, level 4.1x264 [info]: frame I:934 Avg QP:14.89 size:120718x264 [info]: frame P:19314 Avg QP:18.44 size: 37462x264 [info]: frame B:46623 Avg QP:20.61 size: 10745x264 [info]: consecutive B-frames: 5.1% 6.9% 9.5% 63.6% 7.5% 5.9% 0.8% 0.6% 0.1%x264 [info]: mb I I16..4: 8.7% 74.6% 16.7%x264 [info]: mb P I16..4: 3.7% 14.9% 1.5% P16..4: 41.1% 17.4% 11.4% 0.4% 0.1% skip: 9.6%x264 [info]: mb B I16..4: 0.4% 1.6% 0.2% B16..8: 35.3% 7.9% 1.7% direct: 7.8% skip:45.1% L0:39.2% L1:44.6% BI:16.2%x264 [info]: 8x8 transform intra:73.8% inter:65.5%x264 [info]: direct mvs spatial:97.2% temporal:2.8%x264 [info]: coded y,uvDC,uvAC intra: 70.7% 80.7% 45.0% inter: 22.3% 30.0% 2.7%x264 [info]: i16 v,h,dc,p: 26% 21% 7% 46%x264 [info]: i8 v,h,dc,ddl,ddr,vr,hd,vl,hu: 10% 18% 8% 7% 10% 10% 13% 9% 14%x264 [info]: i4 v,h,dc,ddl,ddr,vr,hd,vl,hu: 10% 18% 5% 7% 12% 11% 14% 9% 14%x264 [info]: i8c dc,h,v,p: 34% 30% 17% 18%x264 [info]: Weighted P-Frames: Y:3.3% UV:1.5%x264 [info]: ref P L0: 57.0% 12.5% 15.3% 4.7% 3.6% 2.6% 2.3% 1.6% 0.3% 0.0%x264 [info]: ref B L0: 83.9% 9.2% 3.2% 1.6% 1.1% 0.7% 0.4%x264 [info]: ref B L1: 96.3% 3.7%x264 [info]: kb/s:3999.52encoded 66871 frames, 14.78 fps, 3999.52 kb/s

Скриншоты

-
[Профиль] [ЛС]
Кто просматривает тему:

Форум Тема Автор Размер
Фантастика и фэнтези Горькавый Ник - Астровитянка 02. Теория катастрофы (2015) MP3 Swager 1.04 GB
Фильмы (HD DVD, Blu-ray и BDRemux) Джек Райан: Теория хаоса / Jack Ryan: Shadow Recruit (2014) BDRemux 1080p | Лицензия, Гаврилов Zithylord 30 GB
Фильмы 2014 года Джек Райан: Теория хаоса / Jack Ryan: Shadow Recruit (Кеннет Брана / Kenneth Branagh) [2014, США, Россия, боевик, триллер, детектив, BDRip-AVC] Dub + Sub Eng, Rus, Ukr + Original Eng sergej644 1.46 GB
Фильмы 2014 года Джек Райан: Теория хаоса / Jack Ryan: Shadow Recruit (Кеннет Брэна / Kenneth Branagh) [2014, США, Россия, Боевик, триллер, драма, BDRip-AVC] Dub (BD CEE) + Sub Rus, Eng + Original Eng bot 2.18 GB
Научная и техническая литература Книжная серия: Наука. Величайшие теории [12 книг] (2015) DJVU, PDF BOSS 183 MB
Фантастика и фэнтези Людмила Астахова, Яна Горшкова - Теория заговора (2015) MP3 Swager 1.07 GB
Отечественные cериалы Метеорит [01-08 из 08] (2015) HDTV 1080i достали все 20.8 GB
Отечественные cериалы Метеорит [01-08 из 08] (2015) HDTVRip достали все 4.3 GB
Показать сообщения:    

Текущее время: Сегодня 00:09

Часовой пояс: GMT



Вы не можете начинать темы
Вы не можете отвечать на сообщения
Вы не можете редактировать свои сообщения
Вы не можете удалять свои сообщения
Вы не можете голосовать в опросах
Вы не можете прикреплять файлы к сообщениям
Вы не можете скачивать файлы