Теорема Зеро / The Zero Theorem (2013) BDRip 1080p | Чистый звук

 
Автор Сообщение

sergej644 ®

Пол:

Стаж: 4 года 11 месяцев

Сообщений: 6037

Откуда: Soviet Union



Награды: Нет

Торрент-статистика

Создавать темы 23-Янв-2015 20:34

[Цитировать]

Информация о фильме
Название: Теорема Зеро
Оригинальное название: The Zero Theorem
Год выхода: 2013
Жанр: фантастика, триллер, драма, комедия
Режиссёр: Терри Гиллиам
В ролях: Кристоф Вальц, Мелани Тьерри, Дэвид Тьюлис, Лукас Хеджес, Мэтт Дэймон, Бен Уишоу, Тильда Суинтон, Санджив Бхаскар, Ингрид Бису, Маргарита Дойл
О фильме: Эксцентричный компьютерный гений Коэн Лет бьется над неразрешимой теоремой. Благодаря костюму для виртуальной реальности, изобретенному мальчиком Бобом, Лету удается совершить путешествие в скрытое пространство и узнать тайну своей души. Эту разгадку ищет не только он сам, но и таинственный Менеджмент, который правит всем миром посредством всевидящих устройств под названием ManCams.

Выпущено: США, Румыния, Великобритания, Франция
Продолжительность: 01:46:27
Перевод: Профессиональный (полное дублирование) - Чистый звук (официальный дубляж)
Файл
Качество: BDRip 1080p
Формат: MKV
Видео: MPEG4/AVC, 1816х1036 (16:9), 10.2 Мбит/сек, 23.976 кадра/сек
Аудио 1: AC3, 2 канала, 320 Кбит/сек | Русский
Аудио 2: AC3, 6 каналов, 640 Кбит/сек | Английский
Аудио 3: AC3, 6 каналов, 448 Кбит/сек | Французский
Субтитры: Русские, английские (Full, SDH, SDH-Colored)
Навигация по главам: Есть

MediaInfo:

Общее
Уникальный идентификатор : 233680920796033774340119955572098335049 (0xAFCD4EEB6482C2CBB77BF7C799500149)
Полное имя : The Zero Theorem. (2013) BDRip 1080p.mkv
Формат : Matroska
Версия формата : Version 2
Размер файла : 8,63 Гбайт
Продолжительность : 1 ч. 46 м.
Общий поток : 11,6 Мбит/сек
Название фильма : The Zero Theorem. 2013
Дата кодирования : UTC 2014-08-05 01:59:45
Программа кодирования : mkvmerge v5.8.0 ('No Sleep / Pillow') built on Sep 2 2012 15:37:04
Библиотека кодирования : libebml v1.2.3 + libmatroska v1.3.0
Видео
Идентификатор : 1
Формат : AVC
Формат/Информация : Advanced Video Codec
Профиль формата : High@L4.1
Параметр CABAC формата : Да
Параметр ReFrames формата : 4 кадра
Идентификатор кодека : V_MPEG4/ISO/AVC
Продолжительность : 1 ч. 46 м.
Битрейт : 10,2 Мбит/сек
Ширина : 1816 пикселей
Высота : 1036 пикселей
Соотношение сторон : 16:9
Режим частоты кадров : Постоянный
Частота кадров : 23,976 кадра/сек
Цветовое пространство : YUV
Субдискретизация насыщенности : 4:2:0
Битовая глубина : 8 бит
Тип развёртки : Прогрессивная
Бит/(Пиксели*Кадры) : 0.226
Размер потока : 7,41 Гбайт (86%)
Заголовок : CHD
Библиотека кодирования : x264 core 138 r2356 a1d3d17
Настройки программы : cabac=1 / ref=4 / deblock=1:-3:-3 / analyse=0x3:0x113 / me=umh / subme=10 / psy=1 / psy_rd=1.00:0.05 / mixed_ref=1 / me_range=32 / chroma_me=1 / trellis=2 / 8x8dct=1 / cqm=0 / deadzone=21,11 / fast_pskip=0 / chroma_qp_offset=-2 / threads=18 / lookahead_threads=1 / sliced_threads=0 / nr=0 / decimate=1 / interlaced=0 / bluray_compat=0 / constrained_intra=0 / bframes=5 / b_pyramid=2 / b_adapt=2 / b_bias=0 / direct=3 / weightb=1 / open_gop=0 / weightp=2 / keyint=250 / keyint_min=23 / scenecut=40 / intra_refresh=0 / rc=2pass / mbtree=0 / bitrate=10203 / ratetol=1.0 / qcomp=0.70 / qpmin=0 / qpmax=69 / qpstep=4 / cplxblur=20.0 / qblur=0.5 / ip_ratio=1.40 / pb_ratio=1.30 / aq=2:1.00
Язык : English
Default : Да
Forced : Нет
Аудио #1
Идентификатор : 2
Формат : AC-3
Формат/Информация : Audio Coding 3
Расширение режима : CM (complete main)
Параметр Endianness формата : Big
Идентификатор кодека : A_AC3
Продолжительность : 1 ч. 46 м.
Вид битрейта : Постоянный
Битрейт : 320 Кбит/сек
Каналы : 2 канала
Расположение каналов : Front: L R
Частота : 48,0 КГц
Битовая глубина : 16 бит
Метод сжатия : С потерями
Размер потока : 244 Мбайт (3%)
Заголовок : Line
Язык : Russian
Default : Да
Forced : Нет
Аудио #2
Идентификатор : 3
Формат : AC-3
Формат/Информация : Audio Coding 3
Расширение режима : CM (complete main)
Параметр Endianness формата : Big
Идентификатор кодека : A_AC3
Продолжительность : 1 ч. 46 м.
Вид битрейта : Постоянный
Битрейт : 640 Кбит/сек
Каналы : 6 каналов
Расположение каналов : Front: L C R, Side: L R, LFE
Частота : 48,0 КГц
Битовая глубина : 16 бит
Метод сжатия : С потерями
Размер потока : 487 Мбайт (6%)
Заголовок : Eng
Язык : English
Default : Нет
Forced : Нет
Аудио #3
Идентификатор : 4
Формат : AC-3
Формат/Информация : Audio Coding 3
Расширение режима : CM (complete main)
Параметр Endianness формата : Big
Идентификатор кодека : A_AC3
Продолжительность : 1 ч. 46 м.
Вид битрейта : Постоянный
Битрейт : 448 Кбит/сек
Каналы : 6 каналов
Расположение каналов : Front: L C R, Side: L R, LFE
Частота : 48,0 КГц
Битовая глубина : 16 бит
Метод сжатия : С потерями
Размер потока : 341 Мбайт (4%)
Заголовок : Fre
Язык : French
Default : Нет
Forced : Нет
Текст #1
Идентификатор : 5
Формат : UTF-8
Идентификатор кодека : S_TEXT/UTF8
Идентификатор кодека/Информация : UTF-8 Plain Text
Заголовок : Full | WARgos91
Язык : Russian
Default : Нет
Forced : Нет
Текст #2
Идентификатор : 6
Формат : UTF-8
Идентификатор кодека : S_TEXT/UTF8
Идентификатор кодека/Информация : UTF-8 Plain Text
Заголовок : Full
Язык : English
Default : Нет
Forced : Нет
Текст #3
Идентификатор : 7
Формат : UTF-8
Идентификатор кодека : S_TEXT/UTF8
Идентификатор кодека/Информация : UTF-8 Plain Text
Заголовок : SDH
Язык : English
Default : Нет
Forced : Нет
Текст #4
Идентификатор : 8
Формат : UTF-8
Идентификатор кодека : S_TEXT/UTF8
Идентификатор кодека/Информация : UTF-8 Plain Text
Заголовок : SDH-Colored
Язык : English
Default : Нет
Forced : Нет
Меню
00:00:00.000 : en:00:00:00.000
00:05:37.963 : en:00:05:37.963
00:12:46.474 : en:00:12:46.474
00:20:42.032 : en:00:20:42.032
00:26:03.479 : en:00:26:03.479
00:34:39.119 : en:00:34:39.119
00:38:38.274 : en:00:38:38.274
00:43:15.760 : en:00:43:15.760
00:47:40.900 : en:00:47:40.900
00:55:51.557 : en:00:55:51.557
01:00:55.110 : en:01:00:55.110
01:05:50.613 : en:01:05:50.613
01:15:47.460 : en:01:15:47.460
01:25:13.442 : en:01:25:13.442
01:32:21.536 : en:01:32:21.536
01:38:55.930 : en:01:38:55.930
--
[Профиль] [ЛС]
Показать сообщения:    

Текущее время: Сегодня 18:00

Часовой пояс: GMT



Вы не можете начинать темы
Вы не можете отвечать на сообщения
Вы не можете редактировать свои сообщения
Вы не можете удалять свои сообщения
Вы не можете голосовать в опросах
Вы не можете прикреплять файлы к сообщениям
Вы не можете скачивать файлы