Тень (Дмитрий Светозаров) [2016 г., драма, WEB-DLRip-AVC] [iTunes]

 
Автор Сообщение

Bathory ®

Пол:

Стаж: 1 год 9 месяцев

Сообщений: 320



Награды: 3 (Подробнее)

За внесенный вклад в развитие сайта (Количество: 1) Girls (Количество: 1) Друг (Количество: 1)
Торрент-статистика

Создавать темы 01-Авг-2017 13:14

[Цитировать]

Тень- Информация о фильме
Оригинальное название: Тень
Год выпуска: 2016
Жанр: Драма
Режиссер: Дмитрий Светозаров
В ролях: Михаил Пореченков, Юрий Стоянов, Варвара Щербакова, Павел Чернявский, Сергей Васильев, Анна Степанова, Евгений Катаев, Петр Логачев, Татьяна Тузова, Оксана Базилевич
О фильме:
История преуспевающего бизнесмена Бориса Гордина, у которого, казалось бы, жизнь удалась. Он молод, красив и имеет все, о чем многие лишь мечтают: успех, семью, большой дом… Но ничто не наполняет его жизнь смыслом, не вызывает подлинный интерес, пока однажды Гордин не находит фотографию звезды немого кино. Его настолько завораживает красота актрисы, что он решает найти современную девушку, похожую на нее. Вероника, которая, как две капли воды, похожа на актрису немого кино Веру Листовскую, живет в старой казарме в маленьком провинциальном городке, работает на лесопилке. За ней ухаживает начинающий писатель, а фактически — бывший зэк Изюмов, которого девушка приютила после освобождения. Ей кажется, что в жизни все всегда будет неизменно серо, пока судьба не стучится в ее дверь со странным и неожиданным предложением...

Страна: Россия
Студия: «Студия АСДС»
Продолжительность: 01:51:23
Перевод: Не требуется
Файл
Кодек: AVC
Качество: WEB-DLRip-AVC
Видео: 728x408, 869 kbps, 24 fps, 0,122 Bits/(Pixel*Frame)
Звук: AAC, 48 khz, 2 ch, 64 kbps
Субтитры: Нет

MI

Общее
Unique ID : 218722855638045535773927066749618320897 (0xA48C7D5E4229F2F59A17DC07F4677601)
Complete name : E:\Ten.2016.WEB-DLRip-AVC.MegaPeer.mkv
Format : Matroska
Format version : Version 2
File size : 744 Мбайт
Duration : 1 ч. 51 м.
Overall bit rate : 934 Кбит/сек
Encoded date : UTC 2017-08-01 12:51:17
Writing application : mkvmerge v14.0.0 ('Flow') 64bit
Writing library : libebml v1.3.4 + libmatroska v1.4.5
Видео
ID : 1
Format : AVC
Format/Info : Advanced Video Codec
Format profile : High@L4.1
Format settings, CABAC : Да
Format settings, ReFrames : 11 кадров
Codec ID : V_MPEG4/ISO/AVC
Duration : 1 ч. 51 м.
Bit rate : 869 Кбит/сек
Width : 728 пикселей
Height : 408 пикселей
Display aspect ratio : 16:9
Frame rate mode : Постоянный
Frame rate : 24,000 кадра/сек
Color space : YUV
Chroma subsampling : 4:2:0
Bit depth : 8 бит
Scan type : Прогрессивная
Bits/(Pixel*Frame) : 0.122
Stream size : 692 Мбайт (93%)
Writing library : x264 core 152 r2851 ba24899
Encoding settings : cabac=1 / ref=11 / deblock=1:-2:-1 / analyse=0x3:0x133 / me=umh / subme=11 / psy=1 / psy_rd=1.05:0.12 / mixed_ref=1 / me_range=32 / chroma_me=1 / trellis=2 / 8x8dct=1 / cqm=0 / deadzone=21,11 / fast_pskip=0 / chroma_qp_offset=-3 / threads=12 / lookahead_threads=3 / sliced_threads=0 / nr=0 / decimate=0 / interlaced=0 / bluray_compat=0 / constrained_intra=0 / bframes=14 / b_pyramid=2 / b_adapt=2 / b_bias=0 / direct=3 / weightb=1 / open_gop=0 / weightp=2 / keyint=240 / keyint_min=24 / scenecut=0 / intra_refresh=0 / rc_lookahead=60 / rc=2pass / mbtree=1 / bitrate=869 / ratetol=1.0 / qcomp=0.60 / qpmin=0 / qpmax=51 / qpstep=4 / cplxblur=15.0 / qblur=0.5 / vbv_maxrate=50000 / vbv_bufsize=62500 / nal_hrd=none / filler=0 / ip_ratio=1.40 / aq=2:1.00
Default : Да
Forced : Нет
Аудио
ID : 2
Format : AAC
Format/Info : Advanced Audio Codec
Format profile : HE-AAC / LC
Codec ID : A_AAC
Duration : 1 ч. 51 м.
Bit rate : 64,0 Кбит/сек
Channel(s) : 2 канала
Channel positions : Front: L R
Sampling rate : 48,0 КГц / 24,0 КГц
Frame rate : 23,438 кадра/сек (1024 spf)
Compression mode : С потерями
Delay relative to video : 31 мс.
Stream size : 51,0 Мбайт (7%)
Language : Russian
Default : Да
Forced : Нет

Скриншоты

Релиз:
[Профиль] [ЛС]
Показать сообщения:    

Текущее время: Сегодня 18:47

Часовой пояс: GMT



Вы не можете начинать темы
Вы не можете отвечать на сообщения
Вы не можете редактировать свои сообщения
Вы не можете удалять свои сообщения
Вы не можете голосовать в опросах
Вы не можете прикреплять файлы к сообщениям
Вы не можете скачивать файлы