Тень (2016) WEB-DL 1080p | iTunes

 
Автор Сообщение

BOSS ®

Пол:

Стаж: 3 года 2 месяца

Сообщений: 8576

Откуда: ODESSA



Награды: 22 (Подробнее)

Top Releaser 2 (Количество: 1) Mega Releaser 4 (Количество: 1) Top Keeper 3 (Количество: 1)
Торрент-статистика

Создавать темы 01-Авг-2017 04:26

[Цитировать]

Информация о фильме
Название: Тень
Год выхода: 2016
Жанр: драма
Режиссер: Дмитрий Светозаров
В ролях: Михаил Пореченков, Юрий Стоянов, Варвара Щербакова, Павел Чернявский, Сергей Васильев, Анна Степанова, Евгений Катаев, Петр Логачев, Татьяна Тузова, Оксана Базилевич
О фильме:
История преуспевающего бизнесмена Бориса Гордина, у которого, казалось бы, жизнь удалась. Он молод, красив и имеет все, о чем многие лишь мечтают: успех, семью, большой дом… Но, несмотря на кажущееся благополучие, ничто не наполняет его жизнь смыслом, не вызывает подлинный интерес, пока однажды Гордин не находит фотографию звезды немого кино. Его настолько завораживает красота актрисы, что он решает найти современную девушку, как две капли воды похожую на нее. В поисках ему помогает неудавшийся режиссер Панов.
Вероника, которая, как две капли воды, похожа на знаменитую актрису немого кино Веру Листовскую, становится для Горина недостижимым идеалом. Вероника — простая девушка с непростой судьбой, жительница маленького провинциального города, в котором находится заброшенная военная часть. Отец умер, мать — в тюрьме. Она живет в старой казарме, работает на местной лесопилке. За ней ухаживает начинающий писатель, а по факту, бывший зэк Изюмов, которого девушка приютила после освобождения. Ей кажется, что в жизни все всегда будет неизменно серо, пока судьба не стучится в ее дверь со странным и неожиданным предложением…

Страна: Россия
Продолжительность: 01:51:23
Файл
Формат: MKV
Видео: 1920x1080 at 24.000 fps, MPEG-4 AVC, ~5090 kbps avg
Aудио: Russian 48 kHz, AC3, 3/2 (L,C,R,l,r) + LFE ch, ~384.00 kbps avg |iTunes|
Субтитры: нет
Релиз от:

MediaInfo

General
Unique ID : 173118083061604793354452491265332358651 (0x823D547B6CF82D78B07D274E88022DFB)
Complete name : Ten.WEB-DL.1080p.mkv
Format : Matroska
Format version : Version 4 / Version 2
File size : 4.35 GiB
Duration : 1 h 51 min
Overall bit rate : 5 585 kb/s
Movie name : SHADOW_WEB_DL_1080p-BLUEBIRD
Encoded date : UTC 2017-07-31 19:04:54
Writing application : mkvmerge v6.9.1 ('Blue Panther') 32bit built on Apr 18 2014 18:15:44
Writing library : libebml v1.3.0 + libmatroska v1.4.1
Video
ID : 1
Format : AVC
Format/Info : Advanced Video Codec
Format profile : High@L4
Format settings, CABAC : Yes
Format settings, ReFrames : 4 frames
Codec ID : V_MPEG4/ISO/AVC
Duration : 1 h 51 min
Bit rate : 5 090 kb/s
Width : 1 920 pixels
Height : 1 080 pixels
Display aspect ratio : 16:9
Frame rate mode : Constant
Frame rate : 24.000 FPS
Color space : YUV
Chroma subsampling : 4:2:0
Bit depth : 8 bits
Scan type : Progressive
Bits/(Pixel*Frame) : 0.102
Stream size : 3.96 GiB (91%)
Title : SHADOW_WEB_DL_1080p-BLUEBIRD
Language : English
Default : Yes
Forced : No
Color range : Limited
Color primaries : BT.709
Transfer characteristics : BT.709
Matrix coefficients : BT.709
Audio
ID : 2
Format : AC-3
Format/Info : Audio Coding 3
Format settings, Endianness : Big
Codec ID : A_AC3
Duration : 1 h 51 min
Bit rate mode : Constant
Bit rate : 384 kb/s
Channel(s) : 6 channels
Channel positions : Front: L C R, Side: L R, LFE
Sampling rate : 48.0 kHz
Frame rate : 31.250 FPS (1536 spf)
Bit depth : 16 bits
Compression mode : Lossy
Stream size : 306 MiB (7%)
Title : [ORIGINAL] DD 5.1 @ 384 kbps (iTunes)
Language : Russian
Service kind : Complete Main
Default : Yes
Forced : No
Menu
00:00:00.000 : en:Глава 1
00:07:40.875 : en:Глава 2
00:13:04.958 : en:Глава 3
00:19:44.916 : en:Глава 4
00:24:52.291 : en:Глава 5
00:30:42.166 : en:Глава 6
00:36:34.791 : en:Глава 7
00:42:11.624 : en:Глава 8
00:47:50.999 : en:Глава 9
00:53:35.665 : en:Глава 10
01:01:47.456 : en:Глава 11
01:07:13.456 : en:Глава 12
01:13:15.081 : en:Глава 13
01:21:04.289 : en:Глава 14
01:27:41.789 : en:Глава 15
01:33:18.664 : en:Глава 16
01:40:01.080 : en:Глава 17
[Профиль] [ЛС]
Показать сообщения:    

Текущее время: Сегодня 18:48

Часовой пояс: GMT



Вы не можете начинать темы
Вы не можете отвечать на сообщения
Вы не можете редактировать свои сообщения
Вы не можете удалять свои сообщения
Вы не можете голосовать в опросах
Вы не можете прикреплять файлы к сообщениям
Вы не можете скачивать файлы