Тень / Shadow (Федерико Замполионе / Federico Zampaglione) [2009, Италия, Мистический триллер, HDRip] DVO (BadCatStudio)

 
Автор Сообщение

reversefile ®

Пол:

Стаж: 4 года 5 месяцев

Сообщений: 842

Откуда: ReverseFile.org



Награды: Нет

Торрент-статистика

Создавать темы 13-Авг-2014 10:04

[Цитировать]

Тень / Shadow Страна: Италия
Жанр: Мистический триллер
Год выпуска: 2009
Продолжительность: 01:14:31
Перевод: Любительский (двухголосый закадровый) [BadCatStudio]
Cубтитры: нет
Оригинальная аудиодорожка: нет
Режиссер: Федерико Замполионе / Federico Zampaglione
В ролях: Джэйк Максворти, Карина Теста, Нуот Аркуинт, Крис Коппола, Оттавиано Блич, Мэтт Патрези, Эмилио Де Марчи
Описание: Вернувшись из Ирака, теперь уже бывший солдат Дэвид, путешествует по Европе и пытается обрести душевный покой. Однако обстоятельства вновь заставляют его вспомнить навыки, полученные на войне. И в этой новой схватке очень скоро объявится третья - самая жуткая - сторона...ВНИМАНИЕ! В фильме присутствует ненормативная лексика!Сэмпл: http://multi-up.com/982162
Качество видео: HDRip
Формат видео: AVI
Видео: DivX 5, 720х360, 25,000 кадров/сек, 2361 Кбит/сек
Аудио: MP3, 192 Кбит/сек, 2 канала, 48,0 КГц

MediaInfo

Общее
Полное имя : E:\Торренты 2014г\Тень\Shadow_BadCat_ufa.divx
Формат : AVI
Формат/Информация : Audio Video Interleave
Размер файла : 1,34 Гбайт
Продолжительность : 1 ч. 14 м.
Общий поток : 2562 Кбит/сек
Видео
Идентификатор : 0
Формат : MPEG-4 Visual
Параметр BVOP формата : 2
Параметр QPel формата : Нет
Параметр GMC формата : Без точки перехода
Параметр матрицы формата : Default (H.263)
Режим смешивания : Сжатый битовый поток
Идентификатор кодека : DX50
Идентификатор кодека/Подсказка : DivX 5
Продолжительность : 1 ч. 14 м.
Битрейт : 2361 Кбит/сек
Ширина : 720 пикселей
Высота : 360 пикселей
Соотношение сторон : 2,000
Частота кадров : 25,000 кадров/сек
Цветовое пространство : YUV
Субдискретизация насыщенности : 4:2:0
Битовая глубина : 8 бит
Тип развёртки : Прогрессивная
Метод сжатия : С потерями
Бит/(Пиксели*Кадры) : 0.364
Размер потока : 1,23 Гбайт (92%)
Заголовок : Video
Библиотека кодирования : DivX 2682
Аудио
Идентификатор : 1
Формат : MPEG Audio
Версия формата : Version 1
Профиль формата : Layer 3
Режим : Joint stereo
Расширение режима : MS Stereo
Идентификатор кодека : 55
Идентификатор кодека/Подсказка : MP3
Продолжительность : 1 ч. 14 м.
Вид битрейта : Постоянный
Битрейт : 192 Кбит/сек
Каналы : 2 канала
Частота : 48,0 КГц
Метод сжатия : С потерями
Размер потока : 102 Мбайт (7%)
Выравнивание : Разделение по промежуткам
Продолжительность промежутка : 40 мс. (1,00 видеокадр)
Время предзагрузки промежутка : 500 мс.
Заголовок : Audio - en-US01

Скриншоты

[Профиль] [ЛС]

Создавать темы 06-Авг-2015 23:18 (спустя 11 месяцев 24 дня)

Топик был перенесен из форума Фильмы до 2014 года в форум Фильмы до 2012 года
sergej644
 

Создавать темы 12-Июн-2016 08:48 (спустя 1 год 9 месяцев)

Топик был перенесен из форума Фильмы 2011 года в форум Фильмы 2009 года
Russian Mafia
 
Показать сообщения:    

Текущее время: Сегодня 08:12

Часовой пояс: GMT



Вы не можете начинать темы
Вы не можете отвечать на сообщения
Вы не можете редактировать свои сообщения
Вы не можете удалять свои сообщения
Вы не можете голосовать в опросах
Вы не можете прикреплять файлы к сообщениям
Вы не можете скачивать файлы