Тень закона / La sombra de la ley / Gun City (2018) WEBRip 720p | L2

 
Автор Сообщение

BOSS ®

Пол:

Стаж: 4 года 2 месяца

Сообщений: 12658

Откуда: ODESSA



Награды: 22 (Подробнее)

Top Seeder 4 (Количество: 1) Mega Seeder 1 (Количество: 1) Mega Seeder 5 (Количество: 1)
Торрент-статистика

Создавать темы 16-Ноя-2018 19:48

[Цитировать]

Информация о фильме
Название: Тень закона
Оригинальное название: La sombra de la ley / Gun City
Год выхода: 2018
Жанр: Триллер
Режиссер: Дэни Де Ла Торре
В ролях: Луис Тосар, Мишель Хеннер, Висенте Ромеро, Маноло Соло, Пако Тоус, Хайме Лорэнте, Пеп Тосар, Эрнесто Альтерио, Адриана Торребехано, Хосе Мануэль Ривера
О фильме:
В 1921 году беспринципный полицейский приезжает из Мадрида в Барселону, чтобы найти краденное армейское оружие. А тем временем город заполоняют хаос, забастовки и протесты.

Страна: Испания, Франция,Atresmedia Cine,Atresmedia,Axencia Galega das Industrias Culturais
Продолжительность: 02:06:32
Перевод: Любительский (двухголосый закадровый) | HiWay Grope
Файл
Кодек: MPEG-4 AVC/x.264
Качество: WEBRip 720p
Видео: 1280x536, 23.976 fps, ~2985 kbps, 0.181 bit/pixel
Звук:
Аудио rus: AC3, 48 kHz, 6 ch, 384 Kbps
Субтитры: отсутствуют
Реклама: присутствует
Семпл

MediaInfo:

General
Unique ID : 202717253528746676164059700199783811675 (0x9881EC41F6301628A4C84AD3F5B24A5B)
Complete name : D:Gun.City.2018.720p.WEBRip.HiWayGropeGun.City.2018.720p.WEBRip.HiWayGrope.mkv
Format : Matroska
Format version : Version 4 / Version 2
File size : 2.98 GiB
Duration : 2 h 6 min
Overall bit rate mode : Variable
Overall bit rate : 3 371 kb/s
Encoded date : UTC 2018-11-16 01:19:56
Writing application : mkvmerge v17.0.0 ('Be Ur Friend') 64-bit
Writing library : libebml v1.3.5 + libmatroska v1.4.8
Video
ID : 1
Format : AVC
Format/Info : Advanced Video Codec
Format profile : High@L5
Format settings : CABAC / 4 Ref Frames
Format settings, CABAC : Yes
Format settings, RefFrames : 4 frames
Codec ID : V_MPEG4/ISO/AVC
Duration : 2 h 6 min
Bit rate mode : Variable
Bit rate : 2 985 kb/s
Maximum bit rate : 12.0 Mb/s
Width : 1 280 pixels
Height : 536 pixels
Display aspect ratio : 2.40:1
Frame rate mode : Constant
Frame rate : 23.976 (24000/1001) FPS
Standard : NTSC
Color space : YUV
Chroma subsampling : 4:2:0
Bit depth : 8 bits
Scan type : Progressive
Bits/(Pixel*Frame) : 0.181
Stream size : 2.64 GiB (89%)
Language : English
Default : Yes
Forced : No
Color range : Limited
Color primaries : BT.601 NTSC
Transfer characteristics : BT.601
Matrix coefficients : BT.601
Audio
ID : 2
Format : AC-3
Format/Info : Audio Coding 3
Codec ID : A_AC3
Duration : 2 h 6 min
Bit rate mode : Constant
Bit rate : 384 kb/s
Channel(s) : 6 channels
Channel positions : Front: L C R, Side: L R, LFE
Sampling rate : 48.0 kHz
Frame rate : 31.250 FPS (1536 SPF)
Bit depth : 16 bits
Compression mode : Lossy
Stream size : 348 MiB (11%)
Language : Russian
Service kind : Complete Main
Default : Yes
Forced : No

Скриншоты

Релиз от: HiWay Grope
[Профиль] [ЛС]
Кто просматривает тему:

Показать сообщения:    

Текущее время: Сегодня 16:14

Часовой пояс: GMT



Вы не можете начинать темы
Вы не можете отвечать на сообщения
Вы не можете редактировать свои сообщения
Вы не можете удалять свои сообщения
Вы не можете голосовать в опросах
Вы не можете прикреплять файлы к сообщениям
Вы не можете скачивать файлы