Тени незабытых предков (Любомир Левицкий) [2013, Украина, фэнтези, триллер, детектив, приключения, WEBRip]

 
Автор Сообщение

AleksSin ®

Пол:

Стаж: 6 лет

Сообщений: 218



Награды: 4 (Подробнее)

Mega Seeder 3 (Количество: 1) Mega Seeder 4 (Количество: 1) Mega Seeder 1 (Количество: 1)
Торрент-статистика

Создавать темы 29-Май-2015 04:08

[Цитировать]

Тени незабытых предков / Unforgotten Shadows«А ты уверен, что ты человек?» Страна: Украина
Жанр: фэнтези, триллер, детектив, приключения
Год выпуска: 2013
Продолжительность: 01:49:36
Перевод: Не требуется
Cубтитры: нет
Режиссер: Любомир Левицкий / Lyubomir Levitsky
В ролях: Алена Мусиенко, Богдан Юсипчук, Ольга Фреймут, Дмитрий Ступка, Владислав Никитюк, Павел Ли, Софа Галабурад, Марина Шако, Роксолана Кравчук, Ольга Сумская
Описание: Несколько столетий назад в украинских Карпатах бесчинствовали злые духи и прочие химеры. Тогда девять магов запечатали потустороннюю нечисть в Книгу Теней и заклеймили ее магическим Згардом. С того времени Згард находился в безопасном месте, надежно оберегая вход в наш мир от злых духов. Однако волею судьбы Згард был найден и передан университету, после чего жизнь некоторых студентов изменилась навсегда. Спасти студентов и уничтожить зло сможет только потомок последнего колдуна — мольфара.

Качество видео: WEBRip
Формат видео: AVI
Видео кодек: XviD
Аудио кодек: МР3
Видео: 640x272 (2.35:1), 23.976 fps, XviD build 73 ~814 kbps avg, 0.19 bit/pixel
Аудио: 48 kHz, MPEG Layer 3, 2 ch, ~128.00 kbps avg

MediaInfo

Общее
Полное имя : S:\Фильмы\Тени незабытых предков. 2013. WEBRip. 745 (AleksSin).avi
Формат : AVI
Формат/Информация : Audio Video Interleave
Размер файла : 746 Мбайт
Продолжительность : 1 ч. 49 м.
Общий поток : 951 Кбит/сек
Программа кодирования : VirtualDubMod 1.5.10.3 | www.virtualdub-fr.org || (build 2550/release)
Библиотека кодирования : VirtualDubMod build 2550/release
Видео
Идентификатор : 0
Формат : MPEG-4 Visual
Профиль формата : Advanced Simple@L5
Параметр BVOP формата : 1
Параметр QPel формата : Нет
Параметр GMC формата : Без точки перехода
Параметр матрицы формата : Выборочная
Идентификатор кодека : XVID
Идентификатор кодека/Подсказка : XviD
Продолжительность : 1 ч. 49 м.
Битрейт : 814 Кбит/сек
Ширина : 640 пикс.
Высота : 272 пикс.
Соотношение сторон : 2,35:1
Частота кадров : 23,976 кадр/сек
Цветовое пространство : YUV
Подвыборка цветности : 4:2:0
Битовая глубина : 8 бит
Тип развёртки : Прогрессивная
Метод сжатия : С потерями
Бит/(Пиксели*Кадры) : 0.195
Размер потока : 638 Мбайт (86%)
Библиотека кодирования : XviD 73
Аудио
Идентификатор : 1
Формат : MPEG Audio
Версия формата : Version 1
Профиль формата : Layer 3
Идентификатор кодека : 55
Идентификатор кодека/Подсказка : MP3
Продолжительность : 1 ч. 49 м.
Вид битрейта : Постоянный
Битрейт : 128 Кбит/сек
Каналы : 2 канала
Частота : 48,0 КГц
Метод сжатия : С потерями
Размер потока : 100 Мбайт (13%)
Выравнивание : Соединение по промежуткам
Продолжительность промежутка : 42 мс. (1,00 видеокадр)
Время предзагрузки промежутка : 504 ms
Библиотека кодирования : LAME3.99r
Настройки программы : -m s -V 4 -q 2 -lowpass 17 -b 128

Скриншот c названием фильма

Скриншоты

[Профиль] [ЛС]
Кто просматривает тему:

Показать сообщения:    

Текущее время: Сегодня 23:33

Часовой пояс: GMT



Вы не можете начинать темы
Вы не можете отвечать на сообщения
Вы не можете редактировать свои сообщения
Вы не можете удалять свои сообщения
Вы не можете голосовать в опросах
Вы не можете прикреплять файлы к сообщениям
Вы не можете скачивать файлы