Темный рыцарь: Возрождение легенды : Дилогия / Batman: The Dark Knight Returns : Dilogy (2012-2013) BDRip 1080p от R.G. HD-Films | 60 fps

 
Автор Сообщение

BOSS ®

Пол:

Стаж: 2 года 1 месяц

Сообщений: 3718

Откуда: ODESSA



Награды: 20 (Подробнее)

Mega Seeder 4 (Количество: 1) Mega Seeder 3 (Количество: 1) Mega Seeder 1 (Количество: 1)
Торрент-статистика

Создавать темы 27-Мар-2016 15:48

[Цитировать]

Темный рыцарь: Возрождение легенды. Часть 1

-Название: Темный рыцарь: Возрождение легенды. Часть 2
Оригинальное название: Batman: The Dark Knight Returns, Part 2
Год выпуска: 2012
Страна: США
Жанр: мультфильм, боевик, криминал
Продолжительность: 01:16:22
Перевод: Дубляж, Оригинальный
Субтитры: русские (Полные), английские (Полные)-Режиссер: Джей Олива-В ролях: Питер Уэллер (Batman / Bruce Wayne, озвучка), Ариэль Уинтер (Robin / Carrie Kelley, озвучка), Дэвид Селби (Commissioner Gordon, озвучка), Уэйд Уильямс (Harvey Dent, озвучка), Карлос Аласраки (Hernando, озвучка), Ди Брэдли Бейкер (Don, озвучка), Пэйджет Брюстер (Lana Lang, озвучка), Мария Кэнелс-Баррера (Ellen Yindel, озвучка), Кэти Кавадини (Joanie, озвучка), Таунсенд Коулмэн (Morrie, озвучка), Грэй Гриффин (Anchor Carla, озвучка), Ричард Дойл (The Mayor, озвучка)-Описание:
Прошло 10 лет с тех пор как стареющий Бэтмен «ушел в отставку». Готэм в упадке и беззаконии. Теперь, когда городу так нужен его герой, Бэтмен наконец возвращается. В компании Кэрри Келли - девушки-супергероя - Бэтмен решает очистить улицы от банд мутантов, которые наводнили Готэм.-Рейтинг:

MPAA: PG-13 - Детям до 13 лет просмотр не желателен-Качество: BDRip 1080p 60fps
Формат: MKV
Видео: AVC, 1920x1080 (16:9), 15575 kbps, 60 fps, 0,125 bpp
Аудио 1: русский / AC3 / 2.0 / 48 kHz / 192 kbps / 16 bit
Аудио 2: английский / DTS / 5.1 / 48 kHz / 1510 kbps / 16 bit |Оригинал (Отдельно в папке)|
Навигация по главам: есть- -ОтчетМедиаИнфо
General
Unique ID : 195580026742143287947903884987124217462 (0x932357CF05F79E59BF4DA8EC02A4F676)
Format : Matroska
Format version : Version 4 / Version 2
File size : 8.58 GiB
Duration : 1h 16mn
Overall bit rate mode : Variable
Overall bit rate : 16.1 Mbps
Movie name : Tiberiumsun69
Encoded date : UTC 2016-03-26 05:15:00
Writing application : mkvmerge v8.3.0 ('Over the Horizon') 64bit
Writing library : libebml v1.3.1 + libmatroska v1.4.2
DURATION : 01:16:11.107000000
NUMBER_OF_FRAMES : 848
NUMBER_OF_BYTES : 32007
_STATISTICS_WRITING_APP : mkvmerge v8.3.0 ('Over the Horizon') 64bit
_STATISTICS_WRITING_DATE_UTC : 2016-03-26 05:15:00
_STATISTICS_TAGS : BPS DURATION NUMBER_OF_FRAMES NUMBER_OF_BYTES
Attachment : Yes
Video
ID : 1
Format : AVC
Format/Info : Advanced Video Codec
Format profile : High@L4.2
Format settings, CABAC : Yes
Format settings, ReFrames : 3 frames
Format settings, GOP : M=3, N=60
Codec ID : V_MPEG4/ISO/AVC
Duration : 1h 16mn
Bit rate mode : Variable
Bit rate : 15.6 Mbps
Maximum bit rate : 18.0 Mbps
Width : 1 920 pixels
Height : 1 080 pixels
Display aspect ratio : 16:9
Frame rate : 60.000 fps
Standard : NTSC
Color space : YUV
Chroma subsampling : 4:2:0
Bit depth : 8 bits
Scan type : Progressive
Bits/(Pixel*Frame) : 0.125
Stream size : 8.31 GiB (97%)
Title : Tiberiumsun69
Language : English
Default : Yes
Forced : No
Color primaries : BT.709-5, BT.1361, IEC 61966-2-4, SMPTE RP177
Transfer characteristics : BT.709-5, BT.1361
Matrix coefficients : BT.709-5, BT.1361, IEC 61966-2-4 709, SMPTE RP177
Audio
ID : 2
Format : AC-3
Format/Info : Audio Coding 3
Mode extension : CM (complete main)
Codec ID : A_AC3
Duration : 1h 16mn
Bit rate mode : Constant
Bit rate : 192 Kbps
Channel(s) : 2 channels
Channel positions : Front: L R
Sampling rate : 48.0 KHz
Bit depth : 16 bits
Compression mode : Lossy
Stream size : 105 MiB (1%)
Title : Дубляж
Language : Russian
Default : Yes
Forced : No
Text #1
ID : 3
Format : UTF-8
Codec ID : S_TEXT/UTF8
Codec ID/Info : UTF-8 Plain Text
Title : Полные
Language : Russian
Default : No
Forced : No
Text #2
ID : 4
Format : UTF-8
Codec ID : S_TEXT/UTF8
Codec ID/Info : UTF-8 Plain Text
Title : Полные
Language : English
Default : No
Forced : No
Menu
00:00:00.000 : en:00:00:00.000
00:10:16.533 : en:00:10:16.533
00:18:49.295 : en:00:18:49.295
00:29:03.700 : en:00:29:03.700
00:39:39.919 : en:00:39:39.919
00:50:44.208 : en:00:50:44.208
00:59:19.389 : en:00:59:19.389
01:10:53.708 : en:01:10:53.708
01:12:59.792 : en:01:12:59.792

Скриншоты

Темный рыцарь: Возрождение легенды. Часть 2

-Название: Темный рыцарь: Возрождение легенды. Часть 2
Оригинальное название: Batman: The Dark Knight Returns, Part 2
Год выпуска: 2013
Страна: США
Жанр: мультфильм, боевик, триллер, криминал
Продолжительность: 01:15:49
Перевод: Дубляж, Оригинальный
Субтитры: русские (Полные), английские (Полные)-Режиссер: Джей Олива-В ролях: Питер Уэллер (Batman / Bruce Wayne, озвучка), Ариэль Уинтер (Robin / Carrie Kelley, озвучка), Майкл Эмерсон (Joker, озвучка), Дэвид Селби (Commissioner Gordon, озвучка), Марк Вэлли (Superman / Clark Kent, озвучка), Карлос Аласраки (Congressman Noches, озвучка), Ди Брэдли Бейкер (Don, озвучка), Пэйджет Брюстер (Lana Lang, озвучка), Мария Кэнелс-Баррера (Ellen Yindel, озвучка), Таунсенд Коулмэн (Morrie / Abner, озвучка), Грэй Гриффин (Anchor Carla / Sarah Essen-Gordon, озвучка), Робин Аткин Даунс (Oliver Queen, озвучка)-Описание:
Прошло 10 лет с тех пор как стареющий Бэтмен «ушел в отставку». Готэм в упадке и беззаконии. Теперь, когда городу так нужен его герой, Бэтмен наконец возвращается. В компании Кэрри Келли - девушки-супергероя - Бэтмен решает очистить улицы от банд мутантов, которые наводнили Готэм. После того, как Бэтмен дал отпор своим злейшим врагам Джокеру и Двуликому, он вступает в смертельный бой с бывшим союзником - Суперменом. В этой схватке победит только один.-Рейтинг:

MPAA: PG-13 - Детям до 13 лет просмотр не желателен-Качество: BDRip 1080p 60fps
Формат: MKV
Видео: AVC, 1920x1080 (16:9), 15624 kbps, 60 fps, 0,126 bpp
Аудио 1: русский / AC3 / 2.0 / 48 kHz / 192 kbps / 16 bit
Аудио 2: английский / DTS / 5.1 / 48 kHz / 1510 kbps / 16 bit |Оригинал (Отдельно в папке)|
Навигация по главам: есть- -ОтчетМедиаИнфо
General
Unique ID : 252931606867361242788025300120320635176 (0xBE48DB05A365743EB4DDAB5E408C7128)
Format : Matroska
Format version : Version 4 / Version 2
File size : 8.55 GiB
Duration : 1h 15mn
Overall bit rate : 16.1 Mbps
Movie name : Tiberiumsun69
Encoded date : UTC 2016-03-26 05:33:13
Writing application : mkvmerge v8.3.0 ('Over the Horizon') 64bit
Writing library : libebml v1.3.1 + libmatroska v1.4.2
DURATION : 01:12:27.670000000
NUMBER_OF_FRAMES : 888
NUMBER_OF_BYTES : 31098
_STATISTICS_WRITING_APP : mkvmerge v8.3.0 ('Over the Horizon') 64bit
_STATISTICS_WRITING_DATE_UTC : 2016-03-26 05:33:13
_STATISTICS_TAGS : BPS DURATION NUMBER_OF_FRAMES NUMBER_OF_BYTES
Attachment : Yes / Yes
Video
ID : 1
Format : AVC
Format/Info : Advanced Video Codec
Format profile : Main@L4.2
Format settings, CABAC : Yes
Format settings, ReFrames : 3 frames
Codec ID : V_MPEG4/ISO/AVC
Duration : 1h 15mn
Bit rate : 15.6 Mbps
Width : 1 920 pixels
Height : 1 080 pixels
Display aspect ratio : 16:9
Frame rate : 60.000 fps
Standard : NTSC
Color space : YUV
Chroma subsampling : 4:2:0
Bit depth : 8 bits
Scan type : Progressive
Bits/(Pixel*Frame) : 0.126
Stream size : 8.27 GiB (97%)
Title : Tiuberiumsun69
Language : English
Default : Yes
Forced : No
Color primaries : BT.709-5, BT.1361, IEC 61966-2-4, SMPTE RP177
Transfer characteristics : BT.709-5, BT.1361
Matrix coefficients : BT.709-5, BT.1361, IEC 61966-2-4 709, SMPTE RP177
Audio
ID : 2
Format : AC-3
Format/Info : Audio Coding 3
Format profile : Dolby Digital
Mode extension : CM (complete main)
Codec ID : A_AC3
Duration : 1h 15mn
Bit rate mode : Constant
Bit rate : 192 Kbps
Channel(s) : 2 channels
Channel positions : Front: L R
Sampling rate : 48.0 KHz
Bit depth : 16 bits
Compression mode : Lossy
Stream size : 104 MiB (1%)
Title : Дубляж
Language : Russian
Default : Yes
Forced : Yes
Text #1
ID : 3
Format : UTF-8
Codec ID : S_TEXT/UTF8
Codec ID/Info : UTF-8 Plain Text
Title : Полные
Language : Russian
Default : No
Forced : No
Text #2
ID : 4
Format : UTF-8
Codec ID : S_TEXT/UTF8
Codec ID/Info : UTF-8 Plain Text
Title : Полные
Language : English
Default : No
Forced : No
Menu
00:00:00.000 : en:00:00:00.000
00:09:48.296 : en:00:09:48.296
00:19:40.763 : en:00:19:40.763
00:31:00.442 : en:00:31:00.442
00:38:56.334 : en:00:38:56.334
00:48:59.145 : en:00:48:59.145
00:59:12.799 : en:00:59:12.799
01:08:50.918 : en:01:08:50.918
01:12:29.554 : en:01:12:29.554

Скриншоты

Просьба к переливающим на другие сайты, в оформлении указывайте пожалуйста авторство группы
[Профиль] [ЛС]
Кто просматривает тему:

Форум Тема Автор Размер
Action FPS (1st Person) Call of Cthulhu: Dark Corners of the Earth / Зов Ктулху: Тёмные уголки Земли [L] [RUS / RUS] (2006) TorrentFilm 1.2 GB
Фантастика и фэнтези Баштовая Ксения, Иванова Виктория – Тёмный принц 01. Тяжело быть младшим (2015) MP3 Swager 737 MB
Фантастика и фэнтези Баштовая Ксения, Иванова Виктория – Тёмный принц 02. Маленьких все обидеть норовят! (2015) MP3 Swager 876 MB
Фантастика и фэнтези Баштовая Ксения, Иванова Виктория – Тёмный принц 03. Что выросло, то выросло (2016) MP3 Swager 871 MB
Фильмы 2011 года Гайвер 2: Темный герой / Guyver: Dark Hero (Стив Ванг / Steve Wang) [1994, США, Фантастика, боевик, DVDRip] (Специальное полное издание / Special Extended Version) 5 x AVO (Визгунов + Гаври... Russian Mafia 1.78 GB
Мировая классика Джон Голсуорси - Темный цветок [Евгений Терновский, 2014] Magnat 474 MB
Фильмы 2006-2008 года Дом темных бабочек / Tummien Perhosten Koti (Доме Карукоски / Dome Karukoski) [2008, Финляндия, Драма, DVDRip] VO + Sub Rus + Original Fin TorrentFilm 1.53 GB
Фантастика и фэнтези Колентьев Алексей - Самый тёмный час (2015) MP3 Swager 1.01 GB
Показать сообщения:    

Текущее время: Сегодня 12:34

Часовой пояс: GMT



Вы не можете начинать темы
Вы не можете отвечать на сообщения
Вы не можете редактировать свои сообщения
Вы не можете удалять свои сообщения
Вы не можете голосовать в опросах
Вы не можете прикреплять файлы к сообщениям
Вы не можете скачивать файлы