Темный рассвет / The Darkest Dawn (2016) WEB-DLRip | L

 
Автор Сообщение

BOSS ®

Пол:

Стаж: 2 года 11 месяцев

Сообщений: 7114

Откуда: ODESSA



Награды: 20 (Подробнее)

За внесенный вклад в развитие сайта (Количество: 1) Top Releaser 4 (Количество: 1) Top Seeder 3 (Количество: 1)
Торрент-статистика

Создавать темы 02-Сен-2017 19:14

[Цитировать]

Информация о фильме
Наименование: Темный рассвет
Оригинальное наименование: The Darkest Dawn
Год выхода: 2016
Произведено: Великобритания
Категория: фантастика
Режиссер постановщик: Дрю Кассон
В главных ролях: Мэри Лидли, Стюарт Эшен, Дрю Кассон, Том Скарлетт, Сэм Картер, Джейми Пол, Мавун Ризван, Грузия Брэдли
О фильме:
Земля подверглась нападению пришельцев. Несколько человек пытаются, объединившись, выжить в мире наступившего апокалипсиса.
-

MediaInfo:

General
Complete name : D:The.Darkest.Dawn.2016.P.WEB-DLRip.avi
Format : AVI
Format/Info : Audio Video Interleave
File size : 1.37 GiB
Duration : 1 h 16 min
Overall bit rate : 2 549 kb/s
Writing application : VirtualDubMod 1.5.10.2 (build 2540/release)
Writing library : VirtualDubMod build 2540/release
Video
ID : 0
Format : MPEG-4 Visual
Format profile : Advanced Simple@L5
Format settings, BVOP : 2
Format settings, QPel : No
Format settings, GMC : No warppoints
Format settings, Matrix : Default (MPEG)
Codec ID : XVID
Codec ID/Hint : XviD
Duration : 1 h 16 min
Bit rate : 2 219 kb/s
Width : 720 pixels
Height : 400 pixels
Display aspect ratio : 16:9
Frame rate : 25.000 FPS
Color space : YUV
Chroma subsampling : 4:2:0
Bit depth : 8 bits
Scan type : Progressive
Compression mode : Lossy
Bits/(Pixel*Frame) : 0.308
Stream size : 1.19 GiB (87%)
Writing library : XviD 67
Audio
ID : 1
Format : MPEG Audio
Format version : Version 1
Format profile : Layer 3
Mode : Joint stereo
Codec ID : 55
Codec ID/Hint : MP3
Duration : 1 h 16 min
Bit rate mode : Constant
Bit rate : 320 kb/s
Channel(s) : 2 channels
Sampling rate : 48.0 kHz
Compression mode : Lossy
Stream size : 176 MiB (13%)
Alignment : Aligned on interleaves
Interleave, duration : 40 ms (1.00 video frame)
Interleave, preload duratio : 504 ms
-Файл
Качество: WEB-DLRip
Видео данные: AVI (XVID), 720x400 (16:9), 25.000 fps, 2 219 Кбит/с
Аудио данные: Русский (MP3, 2 ch, 320 Кбит/с)
Перевод: Любительский многоголосый (GreenРай Studio)
Продолжительность: 01:16:01
ВНИМАНИЕ! Присутствует реклама!

Скриншоты

Релиз от:
[Профиль] [ЛС]
Кто просматривает тему:

Форум Тема Автор Размер
Action FPS (1st Person) Call of Cthulhu: Dark Corners of the Earth / Зов Ктулху: Тёмные уголки Земли [L] [RUS / RUS] (2006) TorrentFilm 1.2 GB
Фантастика и фэнтези Баштовая Ксения, Иванова Виктория – Тёмный принц 01. Тяжело быть младшим (2015) MP3 Swager 737 MB
Фантастика и фэнтези Баштовая Ксения, Иванова Виктория – Тёмный принц 02. Маленьких все обидеть норовят! (2015) MP3 Swager 876 MB
Фантастика и фэнтези Баштовая Ксения, Иванова Виктория – Тёмный принц 03. Что выросло, то выросло (2016) MP3 Swager 871 MB
Фильмы 2011 года Гайвер 2: Темный герой / Guyver: Dark Hero (Стив Ванг / Steve Wang) [1994, США, Фантастика, боевик, DVDRip] (Специальное полное издание / Special Extended Version) 5 x AVO (Визгунов + Гаври... Russian Mafia 1.78 GB
Боевики, детективы, триллеры Джо Р. Лансдейл - У края темных вод (2017) MP3 Swager 455 MB
Мировая классика Джон Голсуорси - Темный цветок [Евгений Терновский, 2014] Magnat 474 MB
Фильмы 2006-2008 года Дом темных бабочек / Tummien Perhosten Koti (Доме Карукоски / Dome Karukoski) [2008, Финляндия, Драма, DVDRip] VO + Sub Rus + Original Fin TorrentFilm 1.53 GB
Показать сообщения:    

Текущее время: Сегодня 01:57

Часовой пояс: GMT



Вы не можете начинать темы
Вы не можете отвечать на сообщения
Вы не можете редактировать свои сообщения
Вы не можете удалять свои сообщения
Вы не можете голосовать в опросах
Вы не можете прикреплять файлы к сообщениям
Вы не можете скачивать файлы