Темнота / The Darkness (2016) BDRip 1080p от ExKinoRay | iTunes

 
Автор Сообщение

Russian Mafia ®

Пол:

Стаж: 1 год 8 месяцев

Сообщений: 4257



Награды: 10 (Подробнее)

Mega Seeder 2 (Количество: 1) Mega Seeder 3 (Количество: 1) Top Releaser 2 (Количество: 1)
Торрент-статистика

Создавать темы 16-Окт-2016 05:02

[Цитировать]

Информация о фильме
Название: Темнота
Оригинальное название: The Darkness
Год выхода: 2016
Жанр: Ужасы, триллер
Режиссер: Грег МакЛин
В ролях: Дженнифер Моррисон, Люси Фрай, Кевин Бэйкон, Рада Митчелл, Минг-На, Дэвид Мазоуз, Мэтт Уолш, Тара Барр, Пол Райзер, Ильза Розарио
О фильме:
После отпуска в Гранд-Каньоне семья возвращается домой, невольно прихватив с собой нечто сверхъестественное. Не заставив себя долго ждать, это нечто начинает питаться их страхами и секретами…

Страна: США
Студия: Blumhouse Productions, Chapter One Films
Продолжительность: 01:32:21
Перевод: Дублированный | iTunes
Файл
Кодек: MPEG-4
Качество: BDRip 1080p
Видео: 1920x800, 12.5 Мbit/s, 23.976 fps
Звук:
Аудио #01: 48 kHz, AC3, 2.0, 384 Kbps | Дублированный |
Аудио #02: 48 kHz, DTS, 5.1, 1510 kbps | Оригинал |
Субтитры: Русские (full, forced), английские

MI

General
Unique ID : 192323441756580529001982357110481216857 (0x90B025C5BFC2D2A4A9A0D58F28D3E559)
Complete name : H:VideoThe.Darkness.2016.D.BDRip.1080p.ExKinoRay.mkv
Format : Matroska
Format version : Version 4 / Version 2
File size : 9.28 GiB
Duration : 1 h 32 min
Overall bit rate : 14.4 Mb/s
Movie name : ***селезень***
Encoded date : UTC 2016-10-16 00:51:11
Writing application : mkvmerge v8.3.0 ('Over the Horizon') 64bit
Writing library : libebml v1.3.1 + libmatroska v1.4.2
Video
ID : 1
Format : AVC
Format/Info : Advanced Video Codec
Format profile : High@L4.1
Format settings, CABAC : Yes
Format settings, ReFrames : 5 frames
Codec ID : V_MPEG4/ISO/AVC
Duration : 1 h 32 min
Bit rate : 12.5 Mb/s
Width : 1 920 pixels
Height : 800 pixels
Display aspect ratio : 2.40:1
Frame rate mode : Constant
Frame rate : 23.976 (24000/1001) FPS
Color space : YUV
Chroma subsampling : 4:2:0
Bit depth : 8 bits
Scan type : Progressive
Bits/(Pixel*Frame) : 0.339
Stream size : 8.06 GiB (87%)
Title : ***селезень***
Writing library : x264 core 142 r2431+42 c69a006 tMod [8-bit@all X86_64]
Encoding settings : cabac=1 / ref=5 / deblock=1:-3:-3 / analyse=0x3:0x133 / me=umh / subme=11 / psy=1 / fade_compensate=0.00 / psy_rd=1.00:1.00 / mixed_ref=1 / me_range=32 / chroma_me=1 / trellis=2 / 8x8dct=1 / cqm=0 / deadzone=21,11 / fast_pskip=1 / chroma_qp_offset=-4 / threads=16 / lookahead_threads=2 / sliced_threads=0 / nr=0 / decimate=0 / interlaced=0 / bluray_compat=0 / constrained_intra=0 / fgo=0 / bframes=8 / b_pyramid=2 / b_adapt=2 / b_bias=0 / direct=3 / weightb=1 / open_gop=0 / weightp=2 / keyint=240 / keyint_min=23 / scenecut=40 / intra_refresh=0 / rc_lookahead=150 / rc=2pass / mbtree=1 / bitrate=12500 / ratetol=1.0 / qcomp=0.60 / qpmin=0:0:0 / qpmax=69:69:69 / qpstep=4 / cplxblur=20.0 / qblur=0.5 / vbv_maxrate=40000 / vbv_bufsize=30000 / nal_hrd=none / filler=0 / ip_ratio=1.20 / aq=1:0.68 / aq-sensitivity=10.00 / aq-factor=1.00:1.00:1.00 / aq2=0 / aq3=0
Language : English
Default : Yes
Forced : No
Color range : Limited
Color primaries : BT.709
Transfer characteristics : BT.709
Matrix coefficients : BT.709
Audio #1
ID : 2
Format : AC-3
Format/Info : Audio Coding 3
Mode extension : CM (complete main)
Format settings, Endianness : Big
Codec ID : A_AC3
Duration : 1 h 32 min
Bit rate mode : Constant
Bit rate : 384 kb/s
Channel(s) : 2 channels
Channel positions : Front: L R
Sampling rate : 48.0 kHz
Frame rate : 31.250 FPS (1536 spf)
Compression mode : Lossy
Stream size : 254 MiB (3%)
Title : iTunes
Language : Russian
Default : Yes
Forced : No
Audio #2
ID : 3
Format : DTS
Format/Info : Digital Theater Systems
Mode : 16
Format settings, Endianness : Big
Codec ID : A_DTS
Duration : 1 h 32 min
Bit rate mode : Constant
Bit rate : 1 509 kb/s
Channel(s) : 6 channels
Channel positions : Front: L C R, Side: L R, LFE
Sampling rate : 48.0 kHz
Frame rate : 93.750 FPS (512 spf)
Bit depth : 24 bits
Compression mode : Lossy
Stream size : 997 MiB (10%)
Title : Original
Language : English
Default : No
Forced : No
Text #1
ID : 4
Format : UTF-8
Codec ID : S_TEXT/UTF8
Codec ID/Info : UTF-8 Plain Text
Duration : 1 h 8 min
Bit rate : 2 b/s
Count of elements : 33
Stream size : 1.30 KiB (0%)
Title : Forced
Language : Russian
Default : Yes
Forced : No
Text #2
ID : 5
Format : UTF-8
Codec ID : S_TEXT/UTF8
Codec ID/Info : UTF-8 Plain Text
Duration : 1 h 25 min
Bit rate : 70 b/s
Count of elements : 816
Stream size : 44.0 KiB (0%)
Title : Full
Language : Russian
Default : No
Forced : No
Text #3
ID : 6
Format : UTF-8
Codec ID : S_TEXT/UTF8
Codec ID/Info : UTF-8 Plain Text
Duration : 1 h 25 min
Bit rate : 42 b/s
Count of elements : 822
Stream size : 26.9 KiB (0%)
Title : Full
Language : English
Default : No
Forced : No
Menu
00:00:00.000 : en:Chapter 01
00:04:41.656 : en:Chapter 02
00:09:00.081 : en:Chapter 03
00:15:41.273 : en:Chapter 04
00:22:20.213 : en:Chapter 05
00:26:36.803 : en:Chapter 06
00:30:03.510 : en:Chapter 07
00:35:40.138 : en:Chapter 08
00:39:25.529 : en:Chapter 09
00:43:58.385 : en:Chapter 10
00:50:38.785 : en:Chapter 11
00:55:15.895 : en:Chapter 12
00:58:59.994 : en:Chapter 13
01:02:44.177 : en:Chapter 14
01:06:51.841 : en:Chapter 15
01:11:18.482 : en:Chapter 16
01:14:59.786 : en:Chapter 17
01:20:04.758 : en:Chapter 18
01:26:02.365 : en:Chapter 19
01:27:29.619 : en:Chapter 20

Релиз от: Автор релиза:
[Профиль] [ЛС]
Кто просматривает тему:

Форум Тема Автор Размер
BBC BBC: Horizon: Тайны тёмной энергии / The Mysteries of Dark Energy (Mark Radice) [2015 г., Документальный, научно-познавательный, астрономия, HDTVRip 720p] skorpionN 1.42 GB
BBC BBC: Horizon: Тайны тёмной энергии / The Mysteries of Dark Energy (Mark Radice) [2015 г., Документальный, научно-познавательный, астрономия, SATRip] skorpionN 696 MB
Viasat History Viasat History: История тайных обществ (На тёмной стороне) / Inside Secret Societies (Secrets Of The Underworld) [сезон 1 серии 1-6 из 6] (Брюс Бюргесс / Bruce Burgess) [2016 г., Документальный,... skorpionN 3.81 GB
Windows XP Windows XP Pro SP3 (x86) (Rus) by Viktor Kisel - Универсальный образ системного раздела для восстановления на любой компьютер. nickson-82 2.83 GB
Фильмы (HD Rips | 720p, 1080p) Восход тёмной луны / Dark Moon Rising (2015) BDRip 1080p от NovaLan | L1 BOSS 7.91 GB
Фильмы (DVD 5/9) Восход тёмной луны / Dark Moon Rising (2015) DVD-9 | L1 BOSS 5.2 GB
Фильмы 2015 года Восход тёмной луны / Dark Moon Rising (2015) HDRip | L1 достали все 1.36 GB
Фильмы 2015 года Восход тёмной луны / Dark Moon Rising (2015) HDRip от ExKinoRay | L1 BOSS 1.37 GB
Показать сообщения:    

Текущее время: Сегодня 22:24

Часовой пояс: GMT



Вы не можете начинать темы
Вы не можете отвечать на сообщения
Вы не можете редактировать свои сообщения
Вы не можете удалять свои сообщения
Вы не можете голосовать в опросах
Вы не можете прикреплять файлы к сообщениям
Вы не можете скачивать файлы