Темнота / The Darkness (2016) BDRemux 1080p от ExKinoRay | iTunes

 
Автор Сообщение

Russian Mafia ®

Пол:

Стаж: 1 год 8 месяцев

Сообщений: 4253



Награды: 10 (Подробнее)

Top Releaser 4 (Количество: 1) За внесенный вклад в развитие сайта (Количество: 1) Mega Seeder 2 (Количество: 1)
Торрент-статистика

Создавать темы 16-Окт-2016 04:59

[Цитировать]

Информация о фильме
Название: Темнота
Оригинальное название: The Darkness
Год выхода: 2016
Жанр: Ужасы, триллер
Режиссер: Грег МакЛин
В ролях: Дженнифер Моррисон, Люси Фрай, Кевин Бэйкон, Рада Митчелл, Минг-На, Дэвид Мазоуз, Мэтт Уолш, Тара Барр, Пол Райзер, Ильза Розарио
О фильме:
После отпуска в Гранд-Каньоне семья возвращается домой, невольно прихватив с собой нечто сверхъестественное. Не заставив себя долго ждать, это нечто начинает питаться их страхами и секретами…

Страна: США
Студия: Blumhouse Productions, Chapter One Films
Продолжительность: 01:32:21
Перевод: Дублированный | iTunes
Файл
Кодек: MPEG-4
Качество: BDRemux 1080p
Видео: 1920x1080, 31.1 Mbit/s, 23.976 fps
Звук:
Аудио #01: 48 kHz, AC3, 2.0, 384 Kbps | Дублированный |
Аудио #02: 48 kHz, DTS-HD MA, 5.1, 3266 kbps | Оригинал |
Субтитры: Русские (forced, full), aнглийские

MI

General
Unique ID : 184476837217426209225258061738940315193 (0x8AC8F24CCB5BC9009FC77443792C3639)
Complete name : H:VideoThe.Darkness.2016.D.BDREMUX.1080p.ExKinoRay.mkv
Format : Matroska
Format version : Version 4 / Version 2
File size : 22.4 GiB
Duration : 1 h 32 min
Overall bit rate mode : Variable
Overall bit rate : 34.8 Mb/s
Movie name : build by ***селезень***
Encoded date : UTC 2016-10-16 04:20:22
Writing application : mkvmerge v8.3.0 ('Over the Horizon') 64bit
Writing library : libebml v1.3.1 + libmatroska v1.4.2
Video
ID : 1
Format : AVC
Format/Info : Advanced Video Codec
Format profile : High@L4.1
Format settings, CABAC : Yes
Format settings, ReFrames : 4 frames
Codec ID : V_MPEG4/ISO/AVC
Duration : 1 h 32 min
Bit rate mode : Variable
Bit rate : 31.1 Mb/s
Maximum bit rate : 35.0 Mb/s
Width : 1 920 pixels
Height : 1 080 pixels
Display aspect ratio : 16:9
Frame rate mode : Constant
Frame rate : 23.976 (24000/1001) FPS
Color space : YUV
Chroma subsampling : 4:2:0
Bit depth : 8 bits
Scan type : Progressive
Bits/(Pixel*Frame) : 0.626
Stream size : 20.1 GiB (89%)
Title : build by ***селезень***
Language : English
Default : Yes
Forced : No
Audio #1
ID : 2
Format : AC-3
Format/Info : Audio Coding 3
Mode extension : CM (complete main)
Format settings, Endianness : Big
Codec ID : A_AC3
Duration : 1 h 32 min
Bit rate mode : Constant
Bit rate : 384 kb/s
Channel(s) : 2 channels
Channel positions : Front: L R
Sampling rate : 48.0 kHz
Frame rate : 31.250 FPS (1536 spf)
Compression mode : Lossy
Stream size : 254 MiB (1%)
Title : iTunes
Language : Russian
Default : Yes
Forced : No
Audio #2
ID : 3
Format : DTS
Format/Info : Digital Theater Systems
Format profile : MA / Core
Mode : 16
Format settings, Endianness : Big
Codec ID : A_DTS
Duration : 1 h 32 min
Bit rate mode : Variable / Constant
Bit rate : 3 266 kb/s / 1 509 kb/s
Channel(s) : 6 channels
Channel positions : Front: L C R, Side: L R, LFE
Sampling rate : 48.0 kHz
Frame rate : 93.750 FPS (512 spf)
Bit depth : 24 bits
Compression mode : Lossless / Lossy
Stream size : 2.11 GiB (9%)
Title : Original
Language : English
Default : No
Forced : No
Text #1
ID : 4
Format : UTF-8
Codec ID : S_TEXT/UTF8
Codec ID/Info : UTF-8 Plain Text
Duration : 1 h 8 min
Bit rate : 2 b/s
Count of elements : 33
Stream size : 1.30 KiB (0%)
Title : Forced
Language : Russian
Default : Yes
Forced : No
Text #2
ID : 5
Format : UTF-8
Codec ID : S_TEXT/UTF8
Codec ID/Info : UTF-8 Plain Text
Duration : 1 h 25 min
Bit rate : 70 b/s
Count of elements : 816
Stream size : 44.0 KiB (0%)
Title : Full
Language : Russian
Default : No
Forced : No
Text #3
ID : 6
Format : UTF-8
Codec ID : S_TEXT/UTF8
Codec ID/Info : UTF-8 Plain Text
Duration : 1 h 25 min
Bit rate : 42 b/s
Count of elements : 822
Stream size : 26.9 KiB (0%)
Title : Full
Language : English
Default : No
Forced : No
Menu
00:00:00.000 : en:Chapter 01
00:04:41.656 : en:Chapter 02
00:09:00.081 : en:Chapter 03
00:15:41.273 : en:Chapter 04
00:22:20.213 : en:Chapter 05
00:26:36.803 : en:Chapter 06
00:30:03.510 : en:Chapter 07
00:35:40.138 : en:Chapter 08
00:39:25.529 : en:Chapter 09
00:43:58.385 : en:Chapter 10
00:50:38.785 : en:Chapter 11
00:55:15.895 : en:Chapter 12
00:58:59.994 : en:Chapter 13
01:02:44.177 : en:Chapter 14
01:06:51.841 : en:Chapter 15
01:11:18.482 : en:Chapter 16
01:14:59.786 : en:Chapter 17
01:20:04.758 : en:Chapter 18
01:26:02.365 : en:Chapter 19
01:27:29.619 : en:Chapter 20

Релиз от: Автор релиза:
[Профиль] [ЛС]
Кто просматривает тему:

Форум Тема Автор Размер
BBC BBC: Horizon: Тайны тёмной энергии / The Mysteries of Dark Energy (Mark Radice) [2015 г., Документальный, научно-познавательный, астрономия, HDTVRip 720p] skorpionN 1.42 GB
BBC BBC: Horizon: Тайны тёмной энергии / The Mysteries of Dark Energy (Mark Radice) [2015 г., Документальный, научно-познавательный, астрономия, SATRip] skorpionN 696 MB
Viasat History Viasat History: История тайных обществ (На тёмной стороне) / Inside Secret Societies (Secrets Of The Underworld) [сезон 1 серии 1-6 из 6] (Брюс Бюргесс / Bruce Burgess) [2016 г., Документальный,... skorpionN 3.81 GB
Windows XP Windows XP Pro SP3 (x86) (Rus) by Viktor Kisel - Универсальный образ системного раздела для восстановления на любой компьютер. nickson-82 2.83 GB
Фильмы (HD Rips | 720p, 1080p) Восход тёмной луны / Dark Moon Rising (2015) BDRip 1080p от NovaLan | L1 BOSS 7.91 GB
Фильмы (DVD 5/9) Восход тёмной луны / Dark Moon Rising (2015) DVD-9 | L1 BOSS 5.2 GB
Фильмы 2015 года Восход тёмной луны / Dark Moon Rising (2015) HDRip | L1 достали все 1.36 GB
Фильмы 2015 года Восход тёмной луны / Dark Moon Rising (2015) HDRip от ExKinoRay | L1 BOSS 1.37 GB
Показать сообщения:    

Текущее время: Сегодня 10:33

Часовой пояс: GMT



Вы не можете начинать темы
Вы не можете отвечать на сообщения
Вы не можете редактировать свои сообщения
Вы не можете удалять свои сообщения
Вы не можете голосовать в опросах
Вы не можете прикреплять файлы к сообщениям
Вы не можете скачивать файлы