Темнее ночи в 3Д / Más negro que la noche / Darker Than Night 3D (Генри Бедуэлл / Henry Bedwell) [2014, Ужасы, BDrip-AVC] Half OverUnder / Вертикальная анаморфная стереопара

 
Автор Сообщение

TorrentFilm ®

Пол:

Стаж: 2 года

Сообщений: 7741



Награды: Нет

Торрент-статистика

Создавать темы 05-Мар-2016 00:08

[Цитировать]

-Темнее ночи
Más negro que la noche
Darker Than Night

«Они следят за тобой»
- Год выпуска: 2014
Страна: Мексика, Испания (Celeste Films, Filmadora Nacional, Neo Art)
Жанр: Ужасы
Продолжительность: 01:50:21
Перевод: Профессиональный дублированный - Лицензия
Режиссер: Генри Бедуэлл / Henry Bedwell-Роли исполняли:
______
Greta - Сурия Вега
María - Адриана Лувьер
Pilar - Эрендира Ибарра
Vicky - Она Косамикела
Evangelina - Маргарита Санс
Tia Ofelia - Лусия Гильмаин
Pedro - Хосе Мария Торре
Loco - Мигель Родарте
Tia Ofelia, в молодости - Сара Манни
Rocio (Mucama) - Карла Круз
Garcia - Эрнан Мендоса
Роли дублировали: Жанна Никонова, Ольга Голованова, Антон Савенков, Алексей Шадхин, Татьяна Шарко, Ольга Половинкина, Владимир Рыбальченко, Екатерина Мирошникова-Описание: Юная Грета унаследовала огромный особняк от своей покойной тети Офелии с одним единственным условием — присматривать за ее любимцем — черным котом по кличке Беккер. Обрадованная такому повороту, девушка переезжает в особняк вместе с тремя лучшими подругами. Но однажды ночью кот погибает. Тех, кто нарушил завещание, теперь ждет жестокая расплата.-Доп. инфо: Для сомневающихся в битрейте видео - ниже приведён лог кодирования.-Премьера: 14 августа 2014 (30 октября 2014)
Релиз на DVD (Россия): 9 декабря 2014
Бюджет: ~$2 000 000
Кассовые сборы: $6 091 063

. .
-Качество: BDRip (by Ash61)
Контейнер: MKV
Формат 3D: Half OverUnder / Вертикальная анаморфная стереопара
Порядок ракурсов: левый ракурс первый-Видео: AVC / 23,976 fps / 1920х1080p / 4546 Kbps
Аудио:
#1 - Русский / AC3 / 48 KHz / 5.1 ch / 448 Kbps (Дубляж - R5) (редакция Ash61)
#2 - Испанский / AC3 / 48 KHz / 5.1 ch / 640 Kbps (Original - BD 3D)
Субтитры: Внешние (SRT UTF-8) English Full

Лог кодирования и MediaInfo


General
Unique ID : 242251236040815491716850368477556881074 (0xB63FE415AA41DA6C9CEACC82F087B6B2)
Complete name : E:\MasNegroQueLaNoche(2014)3D-halfOU(Ash61)\MasNegroQueLaNoche(2014)3D-halfOU(Ash61).mkv
Format : Matroska
Format version : Version 2
File size : 4.43 GiB
Duration : 1h 50mn
Overall bit rate : 5 748 Kbps
Movie name : Темнее ночи / Más negro que la noche / Darker Than Night (2014) в 3Д
Encoded date : UTC 2016-02-21 17:33:28
Writing application : mkvmerge v5.8.0 ('No Sleep / Pillow') built on Sep 2 2012 15:37:04
Writing library : libebml v1.2.3 + libmatroska v1.3.0
Video
ID : 1
Format : AVC
Format/Info : Advanced Video Codec
Format profile : High@L4.1
Format settings, CABAC : Yes
Format settings, ReFrames : 4 frames
Codec ID : V_MPEG4/ISO/AVC
Duration : 1h 50mn
Bit rate : 4 546 Kbps
Width : 1 920 pixels
Height : 1 080 pixels
Display aspect ratio : 16:9
Frame rate mode : Constant
Frame rate : 23.976 fps
Color space : YUV
Chroma subsampling : 4:2:0
Bit depth : 8 bits
Scan type : Progressive
Bits/(Pixel*Frame) : 0.091
Stream size : 3.50 GiB (79%)
Title : BDRip by Ash61
Writing library : x264 core 146 r2538 121396c
Encoding settings : cabac=1 / ref=4 / deblock=1:-3:-3 / analyse=0x3:0x113 / me=umh / subme=10 / psy=1 / psy_rd=1.00:0.00 / mixed_ref=1 / me_range=32 / chroma_me=1 / trellis=2 / 8x8dct=1 / cqm=0 / deadzone=21,11 / fast_pskip=1 / chroma_qp_offset=-2 / threads=12 / lookahead_threads=3 / sliced_threads=0 / nr=0 / decimate=1 / interlaced=0 / bluray_compat=0 / constrained_intra=0 / bframes=10 / b_pyramid=2 / b_adapt=2 / b_bias=0 / direct=3 / weightb=1 / open_gop=0 / weightp=2 / keyint=250 / keyint_min=23 / scenecut=40 / intra_refresh=0 / rc_lookahead=60 / rc=crf / mbtree=1 / crf=16.0 / qcomp=0.70 / qpmin=0 / qpmax=69 / qpstep=4 / vbv_maxrate=40000 / vbv_bufsize=30000 / crf_max=0.0 / nal_hrd=none / filler=0 / frame-packing=4 / ip_ratio=1.40 / aq=1:0.70
Language : Spanish
Default : Yes
Forced : No
Audio #1
ID : 2
Format : AC-3
Format/Info : Audio Coding 3
Mode extension : CM (complete main)
Format settings, Endianness : Big
Codec ID : A_AC3
Duration : 1h 50mn
Bit rate mode : Constant
Bit rate : 448 Kbps
Channel(s) : 6 channels
Channel positions : Front: L C R, Side: L R, LFE
Sampling rate : 48.0 KHz
Bit depth : 16 bits
Compression mode : Lossy
Stream size : 354 MiB (8%)
Title : Дубляж - R5 (редакция Ash61)
Language : Russian
Default : Yes
Forced : No
Audio #2
ID : 3
Format : AC-3
Format/Info : Audio Coding 3
Mode extension : CM (complete main)
Format settings, Endianness : Big
Codec ID : A_AC3
Duration : 1h 50mn
Bit rate mode : Constant
Bit rate : 640 Kbps
Channel(s) : 6 channels
Channel positions : Front: L C R, Side: L R, LFE
Sampling rate : 48.0 KHz
Bit depth : 16 bits
Compression mode : Lossy
Stream size : 505 MiB (11%)
Title : Original - BD 3D
Language : Spanish
Default : No
Forced : No
Menu
00:00:00.000 : :1
00:09:15.971 : :2
00:23:00.252 : :3
00:28:44.221 : :4
00:34:50.420 : :5
00:48:12.639 : :6
01:00:16.820 : :7
01:06:13.510 : :8
01:13:51.801 : :9
01:23:29.503 : :10
01:38:23.271 : :11
01:42:21.801 : :12

Для оценки 3Д - Анимированные скрины















[Профиль] [ЛС]
Показать сообщения:    

Текущее время: Сегодня 02:17

Часовой пояс: GMT



Вы не можете начинать темы
Вы не можете отвечать на сообщения
Вы не можете редактировать свои сообщения
Вы не можете удалять свои сообщения
Вы не можете голосовать в опросах
Вы не можете прикреплять файлы к сообщениям
Вы не можете скачивать файлы