Тема (Глеб Панфилов) [1979, СССР, Драма, Мелодрама, Комедия, DVD9] Sub Fre + Original Rus / Potemkine Films

 
Автор Сообщение

TorrentFilm ®

Пол:

Стаж: 2 года

Сообщений: 7741



Награды: Нет

Торрент-статистика

Создавать темы 09-Июл-2015 00:02

[Цитировать]

Тема / Potemkine Films
Страна:СССР
Студия:Мосфильм.
Жанр:Драма, Мелодрама, Комедия
Год выпуска:1979
Продолжительность:01:33:23
Производитель:Potemkine FilmsПеревод:Не требуетсяCубтитры:Французские
Оригинальная аудиодорожка:Русский
Премьера (мир):17.04.1987
Режиссер:Глеб ПанфиловВ ролях:Михаил Ульянов — Ким Алексеевич Есенин
Инна Чурикова — Саша Николаева
Евгений Весник — Игорь Иванович Пащин
Евгения Нечаева — Мария Александровна
Инна Чурикова — Саша Николаева
Евгений Весник — Игорь Иванович Пащин
Евгения Нечаева — Мария Александровна
Сергей Никоненко — младший лейтенант Юрий Синицын
Наталья Селезнёва — Светлана
Станислав Любшин — Андрей
Описание:В поисках вдохновения и новых тем известный столичный писатель отправляется в провинцию. Неожиданно для себя он обнаруживает, что здесь люди живут совсем иначе, чем в привычном ему мире. Став невольным свидетелем подлинной любовной драмы, герой вдруг понимает, что в его жизни и творчестве не хватает самого главного.
Доп. информация:Исходник найден в сети.Сценарий:Александр Червинский, Глеб ПанфиловДиректор фильма:Владимир РепниковОператор:Леонид Калашников
Композитор:Вадим Биберган
Художник:Марксэн Гаухман-Свердлов, К. РазумовскаяМонтаж:Полина Скачкова
Панфилов, Глеб Анатольевич-https://ru.wikipedia.org/wiki/Панфилов,_Глеб_Анатольевич Фильм-[url=https://ru.wikipedia.org/wiki/Тема_(фильм)]https://ru.wikipedia.org/wiki/Тема_(фильм)[/url]Награды и номинации">

Это интересноПанфилов, Глеб Анатольевич-https://ru.wikipedia.org/wiki/Панфилов,_Глеб_Анатольевич Фильм-[url=https://ru.wikipedia.org/wiki/Тема_(фильм)]https://ru.wikipedia.org/wiki/Тема_(фильм)[/url]Награды и номинации



Рецензия

Бонусы:(Без перевода)

Меню:Французский, анимированное , озвученное.Сэмпл :http://multi-up.com/1029945
Тип релиза:DVD9
Контейнер:DVD-Video
Видео:PAL 4:3 (720x576) VBR, 6665 Кбит/сек, 25,000 кадров/сек
Аудио :Русский:AC3, 2 ch, 48.0 KHz, 256 Кбит/сек
Формат субтитров:prerendered (DVD/IDX+SUB)

Dvd Info

Title: Тема
Size: 5.14 Gb ( 5 391 804,00 KBytes ) - DVD-9
Enabled regions: 1, 2, 3, 4, 5, 6, 7, 8
VTS_01 :
Play Length: 00:00:28
Video: PAL 16:9 (720x576) VBR, Auto Letterboxed
Audio:
Not specified, AC3, 2/0 (L,R) ch, 256 kbps, Delay 0 mSec
VTS_02 :
Play Length: 01:33:23
Video: PAL 4:3 (720x576) VBR
Audio:
Russian, AC3, 2/0 (L,R) ch, 256 kbps, Delay 0 mSec
Subtitles:
Francais
VTS_03 :
Play Length: 00:11:01
Video: PAL 16:9 (720x576) VBR, Auto Letterboxed
Audio:
Francais, AC3, 2/0 (L,R) ch, 256 kbps, Delay 0 mSec

MediaInfo

Общее
Полное имя: D:\Тема\VIDEO_TS\VTS_02_2.VOB
Формат : MPEG-PS
Размер файла : 1024 Мбайт
Продолжительность : 20 м.
Режим общего битрейта : Переменный
Общий поток : 7062 Кбит/сек
Видео
Идентификатор : 224 (0xE0)
Формат : MPEG Video
Версия формата : Version 2
Профиль формата : Main@Main
Параметр BVOP формата : Да
Параметр матрицы формата : Выборочная
Параметр GOP формата : M=3, N=12
Продолжительность : 20 м.
Вид битрейта : Переменный
Битрейт : 6665 Кбит/сек
Максимальный битрейт : 7500 Кбит/сек
Ширина : 720 пикселей
Высота : 576 пикселей
Соотношение сторон : 4:3
Частота кадров : 25,000 кадров/сек
Стандарт вещания : PAL
Цветовое пространство : YUV
Субдискретизация насыщенности : 4:2:0
Битовая глубина : 8 бит
Тип развёртки : Чересстрочная
Порядок развёртки : Верхнее поле первое
Метод сжатия : С потерями
Бит/(Пиксели*Кадры) : 0.643
Временной код первого кадра : 01:18:42:23
Оригинал временного кода : Group of pictures header
Размер потока : 966 Мбайт (94%)
Аудио
Идентификатор : 189 (0xBD)-128 (0x80)
Формат : AC-3
Формат/Информация : Audio Coding 3
Расширение режима : CM (complete main)
Параметр Endianness формата : Big
Режим смешивания : DVD-Video
Продолжительность : 20 м.
Вид битрейта : Постоянный
Битрейт : 256 Кбит/сек
Каналы : 2 канала
Расположение каналов : Front: L R
Частота : 48,0 КГц
Битовая глубина : 16 бит
Метод сжатия : С потерями
Задержка видео : -368 мс.
Размер потока : 37,1 Мбайт (4%)
Текст
Идентификатор : 189 (0xBD)-32 (0x20)
Формат : RLE
Формат/Информация : Run-length encoding
Режим смешивания : DVD-Video
Продолжительность : 20 м.
Задержка видео : 1 с. 400 мс.

Скриншоты меню

Скриншоты

Скриншоты доп. материалов

Полиграфия


[Профиль] [ЛС]

Создавать темы 06-Авг-2015 23:37 (спустя 28 дней)

Топик был перенесен из форума Фильмы (HD DVD, Blu-ray и BDRemux) в форум Фильмы (DVD 5/9)
sergej644
 
Показать сообщения:    

Текущее время: Сегодня 17:35

Часовой пояс: GMT



Вы не можете начинать темы
Вы не можете отвечать на сообщения
Вы не можете редактировать свои сообщения
Вы не можете удалять свои сообщения
Вы не можете голосовать в опросах
Вы не можете прикреплять файлы к сообщениям
Вы не можете скачивать файлы