Тело как улика / Body Of Evidence (1993) BDRemux 1080p | P, P2, A

 
Автор Сообщение

Razboynik ®

Пол:

Стаж: 1 год 11 месяцев

Сообщений: 106



Награды: Нет

Торрент-статистика

Создавать темы 14-Сен-2018 07:32

[Цитировать]

Информация о фильме
Название: Тело как улика
Оригинальное название: Body Of Evidence
Год выхода: 1993
Жанр: Триллер, драма, мелодрама, эротика
Режиссер: Ули Эдель
В ролях: Мадонна, Уиллем Дефо, Энн Арчер, Джулианна Мур, Джо Мантенья, Юрген Прохнов, Фрэнк Ланджелла, Стэн Шоу, Чарльз Хэллахан, Лиллиан Леман, Марк Ролстон, Майкл Форест, Ричард Рили, Марио ДеПрайст, Джон Дилэй
О фильме:
Крупный бизнесмен Эндрю Марш найден мёртвым в своей постели, а на личной видеокассете осталась запись его садомазохистских сексуальных развлечений с молодой блондинкой Ребеккой Карлсон. На неё, конечно, падает подозрение в том, что при помощи наркотиков, секса и жестоких игр Ребекка довела пожилого Марша до сердечного приступа, потом заполучив в наследство восемь миллионов долларов. Но адвокат Фрэнк Далэни берётся защищать Ребекку Карлсон, одновременно уступая и её женским чарам...

Страна: Германия, США
Студия: Dino De Laurentiis Company, Neue Constantin Film
Продолжительность: 01:40:55
Перевод: Профессиональный многоголосый, профессиональный двухголосый, авторский
Файл
Кодек: x.264
Качество: BDRemux 1080p.
Видео: MPEG-4 AVC, 30.4 Мбит/с, 1920x1080, 23,976 fps
Звук:
Аудио 01: Русский Dolby AC3, 48000Hz, 2ch, 192kbps - Профессиональный многоголосый (5 канал)
Аудио 02: Русский Dolby AC3, 48000Hz, 2ch, 192kbps - Профессиональный двухголосый (НТВ+)
Аудио 03: Русский Dolby AC3, 48000Hz, 2ch, 192kbps - Профессиональный двухголосый (SDI Media)
Аудио 04: Русский Dolby AC3, 48000Hz, 2ch, 192kbps - Профессиональный многоголосый (ТВ 3)
Аудио 05: Русский Dolby AC3, 48000Hz, 2ch, 192kbps - Профессиональный двухголосый (СВ-Дубль)
Аудио 06: Русский Dolby AC3, 48000Hz, 2ch, 192kbps - Авторский (Алексей Михалёв)
Аудио 07: Английский DTS-HD Master, 48000Hz, 2ch / 3068 kbps / 24-bit (DTS Core: 2ch / 1510 kbps / 24-bit)
Исходник с зарубежного трекера (Body Of Evidence 1993 1080p Blu-ray AVC DTS-HD MA 2.0 || Shout Factory)
Большое спасибо GoldDust за помощь.
Субтитры: Английские
Семпл

Скриншоты

MI

General
Unique ID : 178464201515359508839296361521141636269 (0x8642F478E9460C5F9614429AD5F9DCAD)
Complete name : D:REMUXBody.Of.Evidence.1993.BD-Remux.1080p.mkv
Format : Matroska
Format version : Version 4 / Version 2
File size : 23.8 GiB
Duration : 1h 40mn
Overall bit rate mode : Variable
Overall bit rate : 33.8 Mbps
Encoded date : UTC 2018-09-13 18:25:54
Writing application : mkvmerge v6.1.0 ('Old Devil') built on Mar 2 2013 14:32:37
Writing library : libebml v1.3.0 + libmatroska v1.4.0
Video
ID : 1
Format : AVC
Format/Info : Advanced Video Codec
Format profile : High@L4.1
Format settings, CABAC : Yes
Format settings, ReFrames : 4 frames
Codec ID : V_MPEG4/ISO/AVC
Duration : 1h 40mn
Bit rate mode : Variable
Bit rate : 30.4 Mbps
Maximum bit rate : 35.0 Mbps
Width : 1 920 pixels
Height : 1 080 pixels
Display aspect ratio : 16:9
Frame rate : 23.976 fps
Color space : YUV
Chroma subsampling : 4:2:0
Bit depth : 8 bits
Scan type : Progressive
Bits/(Pixel*Frame) : 0.611
Stream size : 21.4 GiB (90%)
Language : English
Default : Yes
Forced : No
Audio #1
ID : 2
Format : AC-3
Format/Info : Audio Coding 3
Mode extension : CM (complete main)
Codec ID : A_AC3
Duration : 1h 40mn
Bit rate mode : Constant
Bit rate : 192 Kbps
Channel(s) : 2 channels
Channel positions : Front: L R
Sampling rate : 48.0 KHz
Bit depth : 16 bits
Compression mode : Lossy
Stream size : 139 MiB (1%)
Title : MVO (5 канал)
Language : Russian
Default : Yes
Forced : No
Audio #2
ID : 3
Format : AC-3
Format/Info : Audio Coding 3
Mode extension : CM (complete main)
Codec ID : A_AC3
Duration : 1h 40mn
Bit rate mode : Constant
Bit rate : 192 Kbps
Channel(s) : 2 channels
Channel positions : Front: L R
Sampling rate : 48.0 KHz
Bit depth : 16 bits
Compression mode : Lossy
Stream size : 139 MiB (1%)
Title : DVO (НТВ+)
Language : Russian
Default : No
Forced : No
Audio #3
ID : 4
Format : AC-3
Format/Info : Audio Coding 3
Mode extension : CM (complete main)
Codec ID : A_AC3
Duration : 1h 40mn
Bit rate mode : Constant
Bit rate : 192 Kbps
Channel(s) : 2 channels
Channel positions : Front: L R
Sampling rate : 48.0 KHz
Bit depth : 16 bits
Compression mode : Lossy
Stream size : 139 MiB (1%)
Title : DVO (SDI Media)
Language : Russian
Default : No
Forced : No
Audio #4
ID : 5
Format : AC-3
Format/Info : Audio Coding 3
Mode extension : CM (complete main)
Codec ID : A_AC3
Duration : 1h 40mn
Bit rate mode : Constant
Bit rate : 192 Kbps
Channel(s) : 2 channels
Channel positions : Front: L R
Sampling rate : 48.0 KHz
Bit depth : 16 bits
Compression mode : Lossy
Stream size : 139 MiB (1%)
Title : MVO (ТВ 3)
Language : Russian
Default : No
Forced : No
Audio #5
ID : 6
Format : AC-3
Format/Info : Audio Coding 3
Mode extension : CM (complete main)
Codec ID : A_AC3
Duration : 1h 40mn
Bit rate mode : Constant
Bit rate : 192 Kbps
Channel(s) : 2 channels
Channel positions : Front: L R
Sampling rate : 48.0 KHz
Bit depth : 16 bits
Compression mode : Lossy
Stream size : 139 MiB (1%)
Title : DVO (СВ Дубль)
Language : Russian
Default : No
Forced : No
Audio #6
ID : 7
Format : AC-3
Format/Info : Audio Coding 3
Mode extension : CM (complete main)
Codec ID : A_AC3
Duration : 1h 40mn
Bit rate mode : Constant
Bit rate : 192 Kbps
Channel(s) : 2 channels
Channel positions : Front: L R
Sampling rate : 48.0 KHz
Bit depth : 16 bits
Compression mode : Lossy
Stream size : 139 MiB (1%)
Title : AVO (А.Михалёв)
Language : Russian
Default : No
Forced : No
Audio #7
ID : 8
Format : DTS
Format/Info : Digital Theater Systems
Format profile : MA / Core
Codec ID : A_DTS
Duration : 1h 40mn
Bit rate mode : Variable
Bit rate : 1 558 Kbps / 1 510 Kbps
Channel(s) : 2 channels
Channel positions : Front: L R
Sampling rate : 48.0 KHz
Bit depth : 24 bits
Compression mode : Lossless / Lossy
Language : English
Default : No
Forced : No
Text
ID : 9
Format : UTF-8
Codec ID : S_TEXT/UTF8
Codec ID/Info : UTF-8 Plain Text
Language : English
Default : No
Forced : No
Menu
00:00:00.000 : :Chapter 1
00:06:55.932 : :Chapter 2
00:15:33.291 : :Chapter 3
00:22:34.211 : :Chapter 4
00:33:49.886 : :Chapter 5
00:39:13.877 : :Chapter 6
00:48:45.948 : :Chapter 7
00:57:45.487 : :Chapter 8
01:04:58.586 : :Chapter 9
01:13:16.250 : :Chapter 10
01:28:49.683 : :Chapter 11
01:37:44.884 : :Chapter 12
[Профиль] [ЛС]
Кто просматривает тему:

Показать сообщения:    

Текущее время: Сегодня 00:34

Часовой пояс: GMT



Вы не можете начинать темы
Вы не можете отвечать на сообщения
Вы не можете редактировать свои сообщения
Вы не можете удалять свои сообщения
Вы не можете голосовать в опросах
Вы не можете прикреплять файлы к сообщениям
Вы не можете скачивать файлы