Тело греха / Body of Sin (2018) WEBRip 720p | GreenРай Studio

 
Автор Сообщение

BOSS ®

Пол:

Стаж: 4 года

Сообщений: 12092

Откуда: ODESSA



Награды: 22 (Подробнее)

Top Keeper 1 (Количество: 1) Mega Releaser 4 (Количество: 1) Top Seeder 3 (Количество: 1)
Торрент-статистика

Создавать темы 08-Июл-2018 05:12

[Цитировать]

Информация о фильме
Год выхода: 2018
Наименование: Тело греха
Оригинальное наименование: Body of Sin
Страна: США
Жанр: триллер, криминал, приключения
Режиссер постановщик: Амария Олсон, Обин Олсон
В главных ролях: Элиша Криис, Элли Патрикиос, Марк МакКалло, Дэнни Арройо, Барри Пьяченте
О фильме: Две девушки с помощью техник соблазна обкрадывают состоятельных мужчин. Однако, узнав о том, что у одной из их жертв есть бриллианты, стоимостью миллионы долларов, их жизнь подвергается огромному риску.

Файл
Качество: WEBRip 720p
Видео данные: MKV, 1280x540 (2.40:1), 23.976 fps, 3455 Кбит/с
Аудио данные: AAC, 2 ch, 192 Кбит/с
Перевод: Любительский многоголосый (GreenРай Studio)
Продолжительность: 01:25:24

Медиаинфо

General
Unique ID : 139479550636376556932935059829832866216 (0x68EEC8C93283005C31E3FEC34C7CD9A8)
Complete name : E:ГРИНРАЙBody.of.Sin.2018.P.WEB-DL.720p.mkv
Format : Matroska
Format version : Version 4 / Version 2
File size : 2.18 GiB
Duration : 1 h 25 min
Overall bit rate : 3 647 kb/s
Encoded date : UTC 2018-07-07 14:17:50
Writing application : mkvmerge v21.0.0 ('Tardigrades Will Inherit The Earth') 64-bit
Writing library : libebml v1.3.5 + libmatroska v1.4.8
Video
ID : 1
Format : AVC
Format/Info : Advanced Video Codec
Format profile : High@L3.1
Format settings : CABAC / 1 Ref Frames
Format settings, CABAC : Yes
Format settings, RefFrames : 1 frame
Format settings, GOP : M=1, N=30
Codec ID : V_MPEG4/ISO/AVC
Duration : 1 h 25 min
Bit rate : 3 455 kb/s
Width : 1 280 pixels
Height : 540 pixels
Display aspect ratio : 2.40:1
Frame rate mode : Constant
Frame rate : 23.976 (24000/1001) FPS
Color space : YUV
Chroma subsampling : 4:2:0
Bit depth : 8 bits
Scan type : Progressive
Bits/(Pixel*Frame) : 0.208
Stream size : 2.06 GiB (95%)
Language : English
Default : Yes
Forced : No
Audio
ID : 2
Format : AAC
Format/Info : Advanced Audio Codec
Format profile : LC
Codec ID : A_AAC-2
Duration : 1 h 25 min
Bit rate : 192 kb/s
Channel(s) : 2 channels
Channel positions : Front: L R
Sampling rate : 48.0 kHz
Frame rate : 46.875 FPS (1024 SPF)
Compression mode : Lossy
Stream size : 116 MiB (5%)
Language : English
Default : Yes
Forced : No
Внимание, имеется видео и аудио реклама от спонсора показа

Скриншоты

Релиз от:
[Профиль] [ЛС]
Кто просматривает тему:

Показать сообщения:    

Текущее время: Сегодня 23:24

Часовой пояс: GMT



Вы не можете начинать темы
Вы не можете отвечать на сообщения
Вы не можете редактировать свои сообщения
Вы не можете удалять свои сообщения
Вы не можете голосовать в опросах
Вы не можете прикреплять файлы к сообщениям
Вы не можете скачивать файлы