Телохранитель / Maryland (2015) BDRip 720p | iTunes

 
Автор Сообщение

достали все ®

Пол:

Стаж: 1 год 8 месяцев

Сообщений: 6600



Награды: 12 (Подробнее)

Top Releaser 4 (Количество: 1) Mega Seeder 3 (Количество: 1) Mega Seeder 5 (Количество: 1)
Торрент-статистика

Создавать темы 17-Фев-2016 06:51

[Цитировать]

Телохранитель / Maryland
Год выпуска: 2015
Жанр: Драма, Триллер
Страна: Бельгия, Франция
Продолжительность: 01:38:12
Перевод: Профессиональный (многоголосый закадровый) [лицензия iTunes]
Оригинальная дорожка: французская
Субтитры: нет
Главы: есть
Режиссер: Алис Винокур / Alice Winocour
В ролях: Маттиас Шонартс, Дайан Крюгер, Поль Ами, Перси Кемп, Виктор Понтекорво, Майкл Даубер, Франк Торресильяс, Чемс Эддин, Филипп Хаддад
О фильме: Винсент нанимается телохранителем к жене очень богатого человека. Его неодолимо влечет к ней, и первоначальная антипатия перерастает в любовь. Сможет ли он спасти любимую?

Качество видео: BDRip 720p | Murtini
Формат видео: MKV
Видео: MPEG-4 AVC Video 5825 Кбит/сек 1280x690 / 24,000 fps / 1.85:1 / High Profile 4.1
Аудио:
Russian: 48 kHz, AC3 Dolby Digital, 3/2 (L,C,R,l,r) + LFE ch, ~384 kbps
French: 48 kHz, DTS, 3/2 (L,C,R,l,r) + LFE ch, ~1509.00 kbps avg

Скриншоты



MediaInfo

Уникальный идентификатор : 171410450642585338862139787404998880307 (0x80F473B421CC41BF980C675046002C33)
Полное имя : E:V.tempMaryland.2015.BDRemux.1080p.NovaLanMaryland.2015.BluRay.720p.DD5.1.x264.mkv
Формат : Matroska
Версия формата : Version 4 / Version 2
Размер файла : 5,30 Гбайт
Продолжительность : 1 ч. 38 м.
Общий поток : 7721 Кбит/сек
Название фильма : Maryland.2015.BluRay.720p.DD5.1.x264-Murtini
Дата кодирования : UTC 2016-02-16 17:12:53
Программа кодирования : mkvmerge v7.7.0 ('Six Voices') 32bit built on Feb 28 2015 23:23:00
Библиотека кодирования : libebml v1.3.1 + libmatroska v1.4.2
Обложка : Yes
Attachments : cover.jpg
Видео
Идентификатор : 1
Формат : AVC
Формат/Информация : Advanced Video Codec
Профиль формата : High@L4.1
Параметр CABAC формата : Да
Параметр ReFrames формата : 9 кадров
Идентификатор кодека : V_MPEG4/ISO/AVC
Продолжительность : 1 ч. 38 м.
Битрейт : 5825 Кбит/сек
Ширина : 1280 пикселей
Высота : 690 пикселей
Соотношение сторон : 1,85:1
Режим частоты кадров : Постоянный
Частота кадров : 23,976 (24000/1001) кадра/сек
Цветовое пространство : YUV
Субдискретизация насыщенности : 4:2:0
Битовая глубина : 8 бит
Тип развёртки : Прогрессивная
Бит/(Пиксели*Кадры) : 0.275
Размер потока : 4,00 Гбайт (75%)
Библиотека кодирования : x264 core 148 r2638 7599210
Настройки программы : cabac=1 / ref=9 / deblock=1:-2:-1 / analyse=0x3:0x133 / me=umh / subme=11 / psy=1 / psy_rd=1.05:0.10 / mixed_ref=1 / me_range=32 / chroma_me=1 / trellis=2 / 8x8dct=1 / cqm=0 / deadzone=21,11 / fast_pskip=0 / chroma_qp_offset=-4 / threads=6 / lookahead_threads=1 / sliced_threads=0 / nr=0 / decimate=1 / interlaced=0 / bluray_compat=0 / constrained_intra=0 / bframes=8 / b_pyramid=2 / b_adapt=2 / b_bias=0 / direct=1 / weightb=1 / open_gop=0 / weightp=2 / keyint=230 / keyint_min=21 / scenecut=40 / intra_refresh=0 / rc_lookahead=60 / rc=crf / mbtree=0 / crf=17.5 / qcomp=0.70 / qpmin=0 / qpmax=69 / qpstep=4 / vbv_maxrate=30000 / vbv_bufsize=40000 / crf_max=0.0 / nal_hrd=none / filler=0 / ip_ratio=1.35 / pb_ratio=1.25 / aq=2:0.90
Язык : English
Default : Да
Forced : Нет
Аудио #1
Идентификатор : 2
Формат : AC-3
Формат/Информация : Audio Coding 3
Расширение режима : CM (complete main)
Параметр Endianness формата : Big
Идентификатор кодека : A_AC3
Продолжительность : 1 ч. 38 м.
Вид битрейта : Постоянный
Битрейт : 384 Кбит/сек
Каналы : 6 каналов
Расположение каналов : Front: L C R, Side: L R, LFE
Частота : 48,0 КГц
Частота кадров : 31,250 кадров/сек (1536 spf)
Метод сжатия : С потерями
Размер потока : 270 Мбайт (5%)
Заголовок : DD5.1@384kbps
Язык : Russian
Default : Да
Forced : Нет
Аудио #2
Идентификатор : 3
Формат : DTS
Формат/Информация : Digital Theater Systems
Режим : 16
Параметр Endianness формата : Big
Идентификатор кодека : A_DTS
Продолжительность : 1 ч. 38 м.
Вид битрейта : Постоянный
Битрейт : 1509 Кбит/сек
Каналы : 6 каналов
Расположение каналов : Front: L C R, Side: L R, LFE
Частота : 48,0 КГц
Частота кадров : 93,750 кадра/сек (512 spf)
Битовая глубина : 24 бит
Метод сжатия : С потерями
Размер потока : 1,04 Гбайт (20%)
Заголовок : DTS5.1@1509
Язык : efi
Default : Нет
Forced : Нет
Меню
00:00:00.000 : en:00:00:00.000
00:06:13.289 : en:00:06:13.289
00:13:51.622 : en:00:13:51.622
00:24:40.604 : en:00:24:40.604
00:31:39.272 : en:00:31:39.272
00:40:21.544 : en:00:40:21.544
00:51:33.965 : en:00:51:33.965
00:57:45.837 : en:00:57:45.837
01:05:56.077 : en:01:05:56.077
01:12:42.066 : en:01:12:42.066
01:18:48.014 : en:01:18:48.014
01:32:40.930 : en:01:32:40.930
[Профиль] [ЛС]
Показать сообщения:    

Текущее время: Сегодня 05:19

Часовой пояс: GMT



Вы не можете начинать темы
Вы не можете отвечать на сообщения
Вы не можете редактировать свои сообщения
Вы не можете удалять свои сообщения
Вы не можете голосовать в опросах
Вы не можете прикреплять файлы к сообщениям
Вы не можете скачивать файлы