Телохранитель / The Bodyguard (1992) BDRip-AVC | D

 
Автор Сообщение

sergej644 ®

Пол:

Стаж: 4 года 11 месяцев

Сообщений: 6045

Откуда: Soviet Union



Награды: Нет

Торрент-статистика

Создавать темы 01-Ноя-2014 12:26

[Цитировать]

--Телохранитель / The Bodyguard (1992)
Информация о фильме
Название: Телохранитель
Оригинальное название: The Bodyguard
Год выхода: 1992
Жанр: триллер, драма, мелодрама
Режиссер: Мик Джексон
В ролях: Кевин Костнер, Уитни Хьюстон, Гари Кемп, Билл Коббс, Ральф Уэйт, Томас Арана, Мишель Ламар Ричардс, Майк Старр, Кристофер Бирт, Девон Никсон, Джерри Бэммен, Джо Урла, Тони Пирс, Чарльз Китинг, Роберт Вул, Дебби Рейнолдс, Дэнни Камин, Ричард Шифф, Крис Коннелли, Натаниель Паркер, Берт Ремсен, Дональд Хоттон, Нита Уайтакер, Патриция Хили, Роб Салливан, Стивен Шеллен, Виктория Басс, Эбби Вайн, Джо Хесс, Марта Веласко, Джо Ангер, Сьюзен Трейлор, Пэт Ван Паттен, Шелли А. Хилл, Эми Лу Демпси, Рози Ли Хукс, Кен Майлс, Роберт Л. Фейст, Чарльз Базалдуа, Дуглас Прайс, Эллин Ла Вар, Роллин Джарретт
О фильме:
Фрэнк Фармер, сотрудник службы безопасности президента Рейгана, чувствует себя отчасти виновным в том, что в его отсутствие на президента было совершено покушение. Он покидает службу и за большой гонорар, но все же нехотя, нанимается телохранителем чернокожей певицы и актрисы Рэйчел Мэррон, которая постоянно получает письма с угрозами. Первоначальная антипатия, возникшая между ними, постепенно перерастает в любовь. Сложившаяся ситуация мешает телохранителю исполнять свой профессиональный долг, что приводит к частым конфликтам между Фрэнком и Рэйчел… Фармер приходит к выводу, что угроза жизни Рэйчел исходит отнюдь не от психопата, а от профессионального убийцы.

Страна: США
Студия: Kasdan Pictures, Tig Productions, Warner Bros.
Продолжительность: 02:09:20
Перевод: Дублированный (лицензия)
Файл
Кодек: x264
Качество: BDRip-AVC
Видео: 1152x648 (16:9), 23.976 fps, 4187 kbps
Звук: AC-3, 6 ch, 640 kbps

M/I

General
Unique ID : 254634005508039437876272481183253602108 (0xBF90B9C15CAB15CC846A7CFE401F1F3C)
Complete name : D:КИНОTelohranitel'.(1992).BDRip-AVC.[-=DoMiNo=-].mkv
Format : Matroska
Format version : Version 2
File size : 4.36 GiB
Duration : 2h 9mn
Overall bit rate : 4 829 Kbps
Encoded date : UTC 2014-03-27 00:04:01
Writing application : mkvmerge v6.1.0 ('Old Devil') built on Mar 4 2013 09:10:42
Writing library : libebml v1.3.0 + libmatroska v1.4.0
Video
ID : 1
Format : AVC
Format/Info : Advanced Video Codec
Format profile : High@L4.1
Format settings, CABAC : Yes
Format settings, ReFrames : 8 frames
Codec ID : V_MPEG4/ISO/AVC
Duration : 2h 9mn
Bit rate : 4 187 Kbps
Width : 1 152 pixels
Height : 648 pixels
Display aspect ratio : 16:9
Frame rate mode : Constant
Frame rate : 23.976 fps
Color space : YUV
Chroma subsampling : 4:2:0
Bit depth : 8 bits
Scan type : Progressive
Bits/(Pixel*Frame) : 0.234
Stream size : 3.70 GiB (85%)
Writing library : x264 core 130 r2273 b3065e6
Encoding settings : cabac=1 / ref=8 / deblock=1:-3:-3 / analyse=0x3:0x133 / me=umh / subme=11 / psy=1 / psy_rd=1.00:0.20 / mixed_ref=1 / me_range=32 / chroma_me=1 / trellis=2 / 8x8dct=1 / cqm=0 / deadzone=21,11 / fast_pskip=0 / chroma_qp_offset=-6 / threads=16 / lookahead_threads=4 / sliced_threads=0 / slices=4 / nr=0 / decimate=1 / interlaced=0 / bluray_compat=0 / constrained_intra=0 / bframes=8 / b_pyramid=2 / b_adapt=2 / b_bias=0 / direct=3 / weightb=1 / open_gop=0 / weightp=2 / keyint=240 / keyint_min=23 / scenecut=40 / intra_refresh=0 / rc_lookahead=50 / rc=2pass / mbtree=1 / bitrate=4187 / ratetol=1.0 / qcomp=0.60 / qpmin=10 / qpmax=51 / qpstep=4 / cplxblur=20.0 / qblur=0.5 / ip_ratio=1.40 / aq=1:1.50
Default : Yes
Forced : No
Audio
ID : 2
Format : AC-3
Format/Info : Audio Coding 3
Mode extension : CM (complete main)
Format settings, Endianness : Big
Codec ID : A_AC3
Duration : 2h 9mn
Bit rate mode : Constant
Bit rate : 640 Kbps
Channel(s) : 6 channels
Channel positions : Front: L C R, Side: L R, LFE
Sampling rate : 48.0 KHz
Bit depth : 16 bits
Compression mode : Lossy
Stream size : 592 MiB (13%)
Default : Yes
Forced : No
---
[Профиль] [ЛС]
Показать сообщения:    

Текущее время: Сегодня 08:04

Часовой пояс: GMT



Вы не можете начинать темы
Вы не можете отвечать на сообщения
Вы не можете редактировать свои сообщения
Вы не можете удалять свои сообщения
Вы не можете голосовать в опросах
Вы не можете прикреплять файлы к сообщениям
Вы не можете скачивать файлы