Телохранитель киллера / The Hitman's Bodyguard (2017) WEB-DLRip 720p | A

 
Автор Сообщение

BOSS ®

Пол:

Стаж: 3 года 2 месяца

Сообщений: 8630

Откуда: ODESSA



Награды: 22 (Подробнее)

Mega Seeder 5 (Количество: 1) Top Releaser 4 (Количество: 1) Top Releaser 3 (Количество: 1)
Торрент-статистика

Создавать темы 09-Окт-2017 16:57

[Цитировать]

«Когда новый клиент – старый враг»Информация о фильме
Название: Телохранитель киллера
Оригинальное название: The Hitman's Bodyguard
Год выхода: 2017
Жанр: Боевик, комедия
Режиссер: Патрик Хьюз
В ролях: Райан Рейнольдс, Сэмюэл Л. Джексон, Элоди Юнг, Сальма Хайек, Гари Олдман, Жоаки де Алмейда, Юрий Колокольников, Тине Жустра, Сэм Хэзелдайн, Ричард Э. Грант

О фильме:
Он — телохранитель мирового уровня. Его новая работа — охранять киллера, которого все мечтают убить. Он и сам с удовольствием прикончил бы этого гада. Но работа есть работа: смертельные враги в прошлом, они вынуждены объединиться в настоящем, чтобы выжить. Однако их методы настолько различны, а принципы противоположны, что вопрос выживания — под большим вопросом.
Страна: США, Китай, Болгария, Нидерланды / Campbell Grobman Films, Cristal Pictures, East Light Media, Millennium Films
Продолжительность: 01:58:11
Перевод: Авторский (одноголосый закадровый) [Михаил Чадов]

Файл
Качество: WEB-DLRip 720p
Формат: mkv
Видео: H.264, 1280x536 (2.40:1), 23.976 fps, 4703 Kbps
Звук #1: RUS: AC-3, 48.0 KHz, 5.1, 384 Kbps, CBR
Звук #2: ENG: AC-3, 48.0 KHz, 5.1, 384 Kbps, CBR
Субтитры: Английские (Forced, Full)
Релиз от: Переулок Переводмана

Скриншоты

MI

General
Unique ID : 224903326044713895220512583602186421495 (0xA932CE15EEFFBE20B839AC1BFA5304F7)
Complete name : C:UsersshuriVideosTelohranitel'.killera.2017.WEB-DLRip.720p.mkv
Format : Matroska
Format version : Version 4 / Version 2
File size : 4.52 GiB
Duration : 1 h 58 min
Overall bit rate : 5 472 kb/s
Movie name : The Hitman's Bodyguard (2017)
Encoded date : UTC 2017-10-04 18:56:11
Writing application : mkvmerge v16.0.0 ('Protest') 64-bit
Writing library : libebml v1.3.5 + libmatroska v1.4.8
Attachments : The-Hitman_27s-Bodyguard.jpg
Video
ID : 1
Format : AVC
Format/Info : Advanced Video Codec
Format profile : High@L4.1
Format settings, CABAC : Yes
Format settings, ReFrames : 12 frames
Codec ID : V_MPEG4/ISO/AVC
Duration : 1 h 58 min
Bit rate : 4 703 kb/s
Width : 1 280 pixels
Height : 536 pixels
Display aspect ratio : 2.40:1
Frame rate mode : Constant
Frame rate : 23.976 (24000/1001) FPS
Color space : YUV
Chroma subsampling : 4:2:0
Bit depth : 8 bits
Scan type : Progressive
Bits/(Pixel*Frame) : 0.286
Stream size : 3.88 GiB (86%)
Title : The Hitman's Bodyguard (2017)
Writing library : x264 core 148 r2744 b97ae06
Encoding settings : cabac=1 / ref=12 / deblock=1:-3:-3 / analyse=0x3:0x133 / me=umh / subme=10 / psy=1 / psy_rd=1.00:0.00 / mixed_ref=1 / me_range=24 / chroma_me=1 / trellis=2 / 8x8dct=1 / cqm=0 / deadzone=21,11 / fast_pskip=1 / chroma_qp_offset=-2 / threads=6 / lookahead_threads=1 / sliced_threads=0 / nr=0 / decimate=1 / interlaced=0 / bluray_compat=0 / constrained_intra=0 / bframes=16 / b_pyramid=2 / b_adapt=2 / b_bias=2 / direct=3 / weightb=1 / open_gop=0 / weightp=2 / keyint=240 / keyint_min=23 / scenecut=40 / intra_refresh=0 / rc_lookahead=60 / rc=2pass / mbtree=1 / bitrate=4703 / ratetol=1.0 / qcomp=0.60 / qpmin=0 / qpmax=69 / qpstep=4 / cplxblur=20.0 / qblur=0.5 / vbv_maxrate=50000 / vbv_bufsize=62500 / nal_hrd=none / filler=0 / ip_ratio=1.40 / aq=1:1.00
Language : English
Default : Yes
Forced : No
Audio #1
ID : 2
Format : AC-3
Format/Info : Audio Coding 3
Mode extension : CM (complete main)
Format settings, Endianness : Big
Codec ID : A_AC3
Duration : 1 h 58 min
Bit rate mode : Constant
Bit rate : 384 kb/s
Channel(s) : 6 channels
Channel positions : Front: L C R, Side: L R, LFE
Sampling rate : 48.0 kHz
Frame rate : 31.250 FPS (1536 spf)
Bit depth : 16 bits
Compression mode : Lossy
Stream size : 325 MiB (7%)
Title : AC3, 6 ch, 384 Kbps, AVO Chadov
Language : Russian
Default : Yes
Forced : No
Audio #2
ID : 3
Format : AC-3
Format/Info : Audio Coding 3
Mode extension : CM (complete main)
Format settings, Endianness : Big
Codec ID : A_AC3
Duration : 1 h 58 min
Bit rate mode : Constant
Bit rate : 384 kb/s
Channel(s) : 6 channels
Channel positions : Front: L C R, Side: L R, LFE
Sampling rate : 48.0 kHz
Frame rate : 31.250 FPS (1536 spf)
Bit depth : 16 bits
Compression mode : Lossy
Stream size : 325 MiB (7%)
Title : AC3, 6 ch, 384 Kbps, Original
Language : English
Default : No
Forced : No
Text #1
ID : 4
Format : UTF-8
Codec ID : S_TEXT/UTF8
Codec ID/Info : UTF-8 Plain Text
Duration : 1 h 43 min
Bit rate : 1 b/s
Count of elements : 48
Stream size : 1.27 KiB (0%)
Title : Forced
Language : English
Default : Yes
Forced : Yes
Text #2
ID : 5
Format : UTF-8
Codec ID : S_TEXT/UTF8
Codec ID/Info : UTF-8 Plain Text
Duration : 1 h 56 min
Bit rate : 62 b/s
Count of elements : 1724
Stream size : 53.2 KiB (0%)
Title : Full
Language : English
Default : No
Forced : No
[Профиль] [ЛС]
Показать сообщения:    

Текущее время: Сегодня 12:30

Часовой пояс: GMT



Вы не можете начинать темы
Вы не можете отвечать на сообщения
Вы не можете редактировать свои сообщения
Вы не можете удалять свои сообщения
Вы не можете голосовать в опросах
Вы не можете прикреплять файлы к сообщениям
Вы не можете скачивать файлы