Телефонная будка / Phone Booth (2002) BDRip 720p | D

 
Автор Сообщение

sergej644 ®

Пол:

Стаж: 4 года 11 месяцев

Сообщений: 6040

Откуда: Soviet Union



Награды: Нет

Торрент-статистика

Создавать темы 11-Фев-2015 12:41

[Цитировать]

Информация о фильме
Название: Телефонная будка
Оригинальное название: Phone Booth
Год выхода: 2002
Жанр: Триллер
Режиссер: Joel Schumacher
В ролях: Colin Farrell, Kiefer Sutherland, Forest Whitaker, Radha Mitchell
О фильме:
Рекламный агент становится заложником в телефонной будке.

Страна: США
Продолжительность: 01:21:30
Перевод: Дублированный (студия CPIG)
Файл
Кодек: x264 2pass
Качество: BDRip 720p
Видео: 1280x544, 3216 kbps, 23.976 fps
Звук:
AC-3, stereo, 320 kbps (rus, remastered)
AC-3, stereo, 320 kbps (eng, remastered)
Субтитры: отсутствуют

MediaInfo

General
Unique ID : 189088352708656529158306180128395156476 (0x8E4117915A1D7520BB5343ACE69EDBFC)
Complete name : Phone Booth.mkv
Format : Matroska
Format version : Version 4 / Version 2
File size : 2.18 GiB
Duration : 1h 21mn
Overall bit rate : 3 835 Kbps
Movie name : Phone Booth
Encoded date : UTC 2014-10-30 17:25:22
Writing application : mkvmerge v6.8.0 ('Theme for Great Cities') 32bit built on Mar 2 2014 21:27:07
Writing library : libebml v1.3.0 + libmatroska v1.4.1
Video
ID : 1
Format : AVC
Format/Info : Advanced Video Codec
Format profile : High
Format settings, CABAC : Yes
Format settings, ReFrames : 4 frames
Codec ID : V_MPEG4/ISO/AVC
Duration : 1h 21mn
Bit rate : 3 216 Kbps
Width : 1 280 pixels
Height : 544 pixels
Display aspect ratio : 2.35:1
Frame rate mode : Constant
Frame rate : 23.976 fps
Color space : YUV
Chroma subsampling : 4:2:0
Bit depth : 8 bits
Scan type : Progressive
Bits/(Pixel*Frame) : 0.193
Stream size : 1.78 GiB (81%)
Title : Phone Booth
Writing library : x264 core 130 r2273 b3065e6
Encoding settings : cabac=1 / ref=4 / deblock=1:-1:-2 / analyse=0x3:0 / me=tesa / subme=9 / psy=1 / psy_rd=1.00:0.00 / mixed_ref=0 / me_range=8 / chroma_me=0 / trellis=1 / 8x8dct=1 / cqm=0 / deadzone=21,11 / fast_pskip=0 / chroma_qp_offset=-2 / threads=4 / lookahead_threads=1 / sliced_threads=0 / nr=0 / decimate=0 / interlaced=0 / bluray_compat=0 / constrained_intra=0 / bframes=4 / b_pyramid=1 / b_adapt=1 / b_bias=0 / direct=2 / weightb=1 / open_gop=1 / weightp=2 / keyint=192 / keyint_min=16 / scenecut=5 / intra_refresh=0 / rc_lookahead=8 / rc=2pass / mbtree=1 / bitrate=3216 / ratetol=1.0 / qcomp=0.67 / qpmin=12 / qpmax=28 / qpstep=16 / cplxblur=20.0 / qblur=0.5 / ip_ratio=1.20 / aq=2:1.50
Language : English
Default : Yes
Forced : No
Audio #1
ID : 2
Format : AC-3
Format/Info : Audio Coding 3
Mode extension : CM (complete main)
Format settings, Endianness : Big
Codec ID : A_AC3
Duration : 1h 21mn
Bit rate mode : Constant
Bit rate : 320 Kbps
Channel(s) : 2 channels
Channel positions : Front: L R
Sampling rate : 48.0 KHz
Bit depth : 16 bits
Compression mode : Lossy
Stream size : 187 MiB (8%)
Title : Дублированный (remastered)
Language : Russian
Default : Yes
Forced : No
Audio #2
ID : 3
Format : AC-3
Format/Info : Audio Coding 3
Mode extension : CM (complete main)
Format settings, Endianness : Big
Codec ID : A_AC3
Duration : 1h 21mn
Bit rate mode : Constant
Bit rate : 320 Kbps
Channel(s) : 2 channels
Channel positions : Front: L R
Sampling rate : 48.0 KHz
Bit depth : 16 bits
Compression mode : Lossy
Stream size : 187 MiB (8%)
Title : Original (remastered)
Language : English
Default : No
Forced : No

Скриншоты

[Профиль] [ЛС]
Показать сообщения:    

Текущее время: Сегодня 10:46

Часовой пояс: GMT



Вы не можете начинать темы
Вы не можете отвечать на сообщения
Вы не можете редактировать свои сообщения
Вы не можете удалять свои сообщения
Вы не можете голосовать в опросах
Вы не можете прикреплять файлы к сообщениям
Вы не можете скачивать файлы