Телепорт / Jumper (Даг Лайман / Doug Liman) [2008, США, Канада, Фантастика, боевик, триллер, приключения, BDRip-AVC] [Open Matte] Dub + MVO + 2хAVO (А. Гаврилов, Ю. Немахов) + Original (Eng) + Sub (Rus, Ukr, Eng)

 
Автор Сообщение

reversefile ®

Пол:

Стаж: 4 года 5 месяцев

Сообщений: 842

Откуда: ReverseFile.org



Награды: Нет

Торрент-статистика

Создавать темы 11-Авг-2014 10:49

[Цитировать]

Телепорт / Jumper«Где угодно. Когда угодно. Мгновенно»- Страна: США, Канада
Жанр: фантастика, боевик, триллер, приключения
Год выпуска: 2008
Продолжительность: 01:28:21-Перевод №1: Профессиональный (полное дублирование) - Blu-ray
Перевод №2: Профессиональный (многоголосый закадровый) - Студия «Кравец», LostFilm
Перевод №3: Авторский (одноголосый закадровый) - А. Гаврилов - отдельно
Перевод №4: Авторский (одноголосый закадровый) - Ю. Немахов - отдельно
Оригинальная аудиодорожка: English
Cубтитры: русские (forced, full), украинские (forced, full), английские (*.srt)
Навигация по главам: Присутствует-Режиссер: Даг Лайман / Doug Liman
В ролях: Хейден Кристенсен, Сэмюэл Л. Джексон, Дайан Лэйн, Джэми Белл, Рэйчел Билсон, Майкл Рукер, АннаСофия Робб, Макс Тириот, Джесси Джеймс, Том Хульц, Кристен Стюарт, Тедди Данн, Барбара Гаррик, Майкл Уинтер, Массимилиано Паццаглиа, Шоун Робертс, Натали Кокс, Мередит Хендерсон, Дамир Андрей, Тони Нэппо, Джордж Кинг.-Описание: Подросток из неблагополучного района Дэвид Райс всегда считал себя обычным парнем, пока однажды он не узнал, что он может телепортироваться с места на место. Новые способности открыли перед ним весь мир. Он может побывать в Нью-Йорке и Токио, посетить античные развалины в Риме, увидеть «крышу мира» с горы Эверест, увидеть 20 рассветов и 20 закатов. И все — в один день.
Теперь ему не нужны деньги — он может взять сколько хочет. Однако в один момент он обнаруживает, что стал мишенью. На него, как и на других подобных ему, объявлена охота. На протяжении тысячи лет тайное общество стремится уничтожить их. Вскоре Дэвид узнает истинную ценность его новых способностей.-imdb.com: 6.00 (185 035)
kinopoisk.ru: 7.120 (65 677)
-Качество видео: BDRip-AVC | исх.Телепорт.2008.Blu-Ray.Remux.(1080p).mkv
Формат видео: MKV-Видео: 1 152x648 (16:9), 23.976 fps, AVC ~4527 kbps avg, 0.247 bit/pixel
Аудио №1: 48 kHz, AC3 Dolby Digital, 3/2 (L,C,R,l,r) + LFE ch, ~448 kbps | Профессиональный (полное дублирование) - Blu-ray
Аудио №2: 48 kHz, AC3 Dolby Digital, 3/2 (L,C,R,l,r) + LFE ch, ~448 kbps | Профессиональный (многоголосый закадровый) - Студия «Кравец», LostFilm
Аудио №3: 48 kHz, AC3 Dolby Digital, 3/2 (L,C,R,l,r) + LFE ch, ~448 kbps | Авторский (одноголосый закадровый) - А. Гаврилов - отдельно
Аудио №4: 48 kHz, AC3 Dolby Digital, 3/2 (L,C,R,l,r) + LFE ch, ~448 kbps | Авторский (одноголосый закадровый) - Ю. Немахов - отдельно
Аудио №5: 48 kHz, AC3 Dolby Digital, 3/2 (L,C,R,l,r) + LFE ch, ~448 kbps | English-

Дополнительно

За перевод А. Гаврилова большое спасибо пользователям форума hdtracker: rydanes, SavineX, MeGUI, shitman82, maximus1099, Chistobaev, dark1982, chef&chef, dunhill200, lexal, Role, Brown15, Guyver, Pain_70, karantin66, foxlight, nimph, carter64, TvarYuri, Skibichok, GaryH, Vimann, kondratzx, fly32, Letyoha3.
За перевод Ю. Немахов спасибо HDClub'у.

MediaInfo

General
Unique ID : 176634022229910802931635823194565674336 (0x84E279AAB4B2B9ACB2622A242BF68560)
Complete name : D:\Фильмы\Рипы\Jumper.2008.BDRip-AVC.by Fredd Kruger\Jumper.2008.BDRip-AVC.by Fredd Kruger.mkv
Format : Matroska
Format version : Version 2
File size : 3.63 GiB
Duration : 1h 28mn
Overall bit rate : 5 874 Kbps
Movie name : Jumper (2008) - Release for rutracker by Fredd Kruger
Encoded date : UTC 2014-02-13 14:27:14
Writing application : mkvmerge v5.0.1 ('Es ist Sommer') built on Nov 6 2011 16:23:40
Writing library : libebml v1.2.2 + libmatroska v1.3.0
Attachment : Yes / Yes
Video
ID : 1
Format : AVC
Format/Info : Advanced Video Codec
Format profile : High@L4.1
Format settings, CABAC : Yes
Format settings, ReFrames : 10 frames
Codec ID : V_MPEG4/ISO/AVC
Duration : 1h 28mn
Bit rate : 4 413 Kbps
Width : 1 152 pixels
Height : 648 pixels
Display aspect ratio : 16:9
Frame rate mode : Constant
Frame rate : 23.976 fps
Color space : YUV
Chroma subsampling : 4:2:0
Bit depth : 8 bits
Scan type : Progressive
Bits/(Pixel*Frame) : 0.247
Stream size : 2.72 GiB (75%)
Title : Encode by Fredd Kruger
Writing library : x264 core 142 r2389kMod 956c8d8
Encoding settings : cabac=1 / ref=10 / deblock=1:-3:-3 / analyse=0x3:0x133 / me=umh / subme=9 / psy=1 / fade_compensate=0.00 / psy_rd=1.25:0.00 / mixed_ref=1 / me_range=48 / chroma_me=1 / trellis=2 / 8x8dct=1 / cqm=0 / deadzone=21,11 / fast_pskip=1 / chroma_qp_offset=-2 / threads=8 / lookahead_threads=2 / sliced_threads=0 / nr=0 / decimate=1 / interlaced=0 / bluray_compat=0 / constrained_intra=0 / fgo=0 / bframes=14 / b_pyramid=2 / b_adapt=2 / b_bias=0 / direct=3 / weightb=1 / open_gop=0 / weightp=2 / keyint=250 / keyint_min=23 / scenecut=40 / intra_refresh=0 / rc_lookahead=60 / rc=crf / mbtree=0 / crf=19.4750 / qcomp=0.60 / qpmin=0 / qpmax=69 / qpstep=4 / vbv_maxrate=50000 / vbv_bufsize=62500 / crf_max=0.0 / nal_hrd=none / filler=0 / ip_ratio=1.30 / pb_ratio=1.30 / aq=1:0.67
Default : Yes
Forced : No
Audio #1
ID : 2
Format : AC-3
Format/Info : Audio Coding 3
Mode extension : CM (complete main)
Format settings, Endianness : Big
Codec ID : A_AC3
Duration : 1h 28mn
Bit rate mode : Constant
Bit rate : 448 Kbps
Channel count : 6 channels
Channel positions : Front: L C R, Side: L R, LFE
Sampling rate : 48.0 KHz
Bit depth : 16 bits
Compression mode : Lossy
Stream size : 283 MiB (8%)
Title : Dub
Language : Russian
Default : Yes
Forced : No
Audio #2
ID : 3
Format : AC-3
Format/Info : Audio Coding 3
Mode extension : CM (complete main)
Format settings, Endianness : Big
Codec ID : A_AC3
Duration : 1h 28mn
Bit rate mode : Constant
Bit rate : 448 Kbps
Channel count : 6 channels
Channel positions : Front: L C R, Side: L R, LFE
Sampling rate : 48.0 KHz
Bit depth : 16 bits
Compression mode : Lossy
Stream size : 283 MiB (8%)
Title : MVO, Студия «Кравец», LostFilm
Language : Russian
Default : No
Forced : No
Audio #3
ID : 4
Format : AC-3
Format/Info : Audio Coding 3
Mode extension : CM (complete main)
Format settings, Endianness : Big
Codec ID : A_AC3
Duration : 1h 28mn
Bit rate mode : Constant
Bit rate : 448 Kbps
Channel count : 6 channels
Channel positions : Front: L C R, Side: L R, LFE
Sampling rate : 48.0 KHz
Bit depth : 16 bits
Compression mode : Lossy
Stream size : 283 MiB (8%)
Language : English
Default : No
Forced : No
Text #1
ID : 5
Format : UTF-8
Codec ID : S_TEXT/UTF8
Codec ID/Info : UTF-8 Plain Text
Title : forced
Language : Russian
Default : Yes
Forced : No
Text #2
ID : 6
Format : UTF-8
Codec ID : S_TEXT/UTF8
Codec ID/Info : UTF-8 Plain Text
Title : full
Language : Russian
Default : No
Forced : No
Text #3
ID : 7
Format : UTF-8
Codec ID : S_TEXT/UTF8
Codec ID/Info : UTF-8 Plain Text
Title : forced
Language : Ukrainian
Default : No
Forced : No
Text #4
ID : 8
Format : UTF-8
Codec ID : S_TEXT/UTF8
Codec ID/Info : UTF-8 Plain Text
Title : full
Language : Ukrainian
Default : No
Forced : No
Text #5
ID : 9
Format : UTF-8
Codec ID : S_TEXT/UTF8
Codec ID/Info : UTF-8 Plain Text
Language : English
Default : No
Forced : No
Menu
00:00:00.000 : :Chapter 01
00:04:21.094 : :Chapter 02
00:07:52.555 : :Chapter 03
00:12:35.713 : :Chapter 04
00:15:08.699 : :Chapter 05
00:17:46.982 : :Chapter 06
00:22:51.787 : :Chapter 07
00:25:51.466 : :Chapter 08
00:28:57.235 : :Chapter 09
00:31:46.988 : :Chapter 10
00:32:57.058 : :Chapter 11
00:36:18.092 : :Chapter 12
00:39:52.640 : :Chapter 13
00:43:21.056 : :Chapter 14
00:48:47.299 : :Chapter 15
00:51:01.725 : :Chapter 16
00:54:48.285 : :Chapter 17
00:59:15.969 : :Chapter 18
01:02:11.728 : :Chapter 19
01:07:32.673 : :Chapter 20
01:12:45.402 : :Chapter 21
01:17:04.411 : :Chapter 22
01:20:39.584 : :Chapter 23
01:23:49.065 : :Chapter 24

x264 log

x264 [info]: frame I:729 Avg QP:18.19 size: 84237 PSNR Mean Y:44.47 U:48.57 V:49.72 Avg:45.26 Global:44.56
x264 [info]: frame P:30100 Avg QP:19.24 size: 42835 PSNR Mean Y:43.39 U:49.74 V:50.99 Avg:44.25 Global:43.42
x264 [info]: frame B:96261 Avg QP:21.59 size: 17135 PSNR Mean Y:42.09 U:47.28 V:48.99 Avg:43.02 Global:42.17
x264 [info]: consecutive B-frames: 2.5% 6.3% 9.0% 19.8% 18.6% 35.6% 4.2% 0.7% 0.9% 0.9% 0.4% 0.1% 0.4% 0.4% 0.2%
x264 [info]: mb I I16..4: 9.3% 76.1% 14.6%
x264 [info]: mb P I16..4: 1.4% 13.8% 1.3% P16..4: 39.0% 20.1% 15.4% 0.3% 0.1% skip: 8.5%
x264 [info]: mb B I16..4: 0.1% 1.0% 0.1% B16..8: 47.0% 10.6% 3.7% direct: 7.4% skip:30.2% L0:43.9% L1:49.2% BI: 6.9%
x264 [info]: 8x8 transform intra:82.7% inter:63.2%
x264 [info]: direct mvs spatial:99.9% temporal:0.1%
x264 [info]: coded y,uvDC,uvAC intra: 86.5% 85.0% 66.5% inter: 34.3% 33.3% 8.2%
x264 [info]: i16 v,h,dc,p: 40% 17% 8% 35%
x264 [info]: i8 v,h,dc,ddl,ddr,vr,hd,vl,hu: 10% 7% 7% 11% 15% 14% 14% 11% 11%
x264 [info]: i4 v,h,dc,ddl,ddr,vr,hd,vl,hu: 9% 6% 3% 11% 17% 15% 16% 12% 13%
x264 [info]: i8c dc,h,v,p: 47% 19% 16% 18%
x264 [info]: Weighted P-Frames: Y:4.2% UV:2.4%
x264 [info]: ref P L0: 45.7% 11.4% 16.6% 6.7% 5.4% 3.9% 3.6% 2.4% 2.1% 1.8% 0.4% 0.1%
x264 [info]: ref B L0: 73.1% 11.5% 5.6% 3.0% 2.1% 1.8% 1.7% 0.9% 0.3%
x264 [info]: ref B L1: 92.8% 7.2%
x264 [info]: SSIM Mean Y:0.9618790 (14.188db)
x264 [info]: PSNR Mean Y:42.410 U:47.872 V:49.470 Avg:43.326 Global:42.445 kb/s:4527.98
x264 [total]: encoded 127090 frames, 10.53 fps, 4527.98 kb/s

Скриншоты

Сравнение

Source

Encode

3D BluRay Open Matte
--
[Профиль] [ЛС]

Создавать темы 06-Авг-2015 23:19 (спустя 11 месяцев 26 дней)

Топик был перенесен из форума Фильмы до 2014 года в форум Фильмы до 2012 года
sergej644
 

Создавать темы 12-Июн-2016 08:50 (спустя 1 год 10 месяцев)

Топик был перенесен из форума Фильмы 2011 года в форум Фильмы 2006-2008 года
Russian Mafia
 
Кто просматривает тему:

Форум Тема Автор Размер
Документальные HD В кольце. Специальный корреспондент. Эфир от 28/11/2014 (Александра Бузаладзе) [2014, Документалистика, телепередача, HDTV 1080i] TorrentFilm 5.57 GB
Фильмы 2006-2008 года Телепорт / Jumper (Даг Лайман / Doug Liman) [2008, США, Канада, Фантастика, боевик, триллер, приключения, BDRip-AVC] [Open Matte] Dub + Original (Eng) + Sub (Rus, Ukr, Eng) painkiller 1.46 GB
Зарубежные Телепорт 3Д / Jumper 3D (Даг Лайман / Doug Liman) [2008, США, Канада, фантастика, боевик, триллер, приключения, Blu-Ray Disc, 1080p] BD3D (custom) TorrentFilm 37.85 GB
Зарубежные Телепорт 3Д / Jumper 3D (Даг Лайман / Doug Liman) [2008, США, фантастика, боевик, триллер, приключения, BDRemux 2D/3D] Dub (CEE) + 2xAVO (А.Гаврилов, Ю.Немахов) + MVO (Студия "Кравец") +... TorrentFilm 39.81 GB
Зарубежные Телепорт в 3Д / Jumper 3D (Даг Лайман / Doug Liman) [2008, Фантастика, Боевик, Приключения, BDrip-AVC] Half OverUnder / Вертикальная анаморфная стереопара TorrentFilm 15.7 GB
Документальные HD Телепутеводитель (Наталья Сидоренкова) [2009, Документальный цикл, познавательный, HDTV 1080i] TorrentFilm 19.31 GB
Показать сообщения:    

Текущее время: Сегодня 09:05

Часовой пояс: GMT



Вы не можете начинать темы
Вы не можете отвечать на сообщения
Вы не можете редактировать свои сообщения
Вы не можете удалять свои сообщения
Вы не можете голосовать в опросах
Вы не можете прикреплять файлы к сообщениям
Вы не можете скачивать файлы