Твоё имя / Kimi no Na wa / Your Name [2016] (Макото Синкай) [Аниме, романтика, драма, школа, сверхъестественное , полнометражный] [BDRip 1080p ] [MVO] [AlexFilm,SHIZA,STEPonee] [DD5.1] [RusSub + Оригинал]

 
Автор Сообщение

Враг Нароода ®

Стаж: 2 года 5 месяцев

Сообщений: 164



Награды: 2 (Подробнее)

Mega Seeder 1 (Количество: 1) За внесенный вклад в развитие сайта (Количество: 1)
Торрент-статистика

Создавать темы 03-Авг-2017 10:02

[Цитировать]

--Твоё имя / Kimi no Na wa / Your Name-- --Год выпуска: 2016
Выпущено: Япония, CoMix Wave Films
Жанр: Аниме, романтика, драма, школа, сверхъестественное , полнометражный
Продолжительность: 01:46:26--Озвучка 1: Профессиональный многоголосый - AlexFilm- Русский
Озвучка 2: Профессиональный многоголосый - SHIZA- Русский
Озвучка 3: Профессиональный многоголосый -STEPonee- Русский
Озвучка 4: Профессиональный многоголосый -Японский - Оригинал
Субтитры: Русские ,Японские
--IMDB --Режиссер:
Макото Синкай--В ролях: Монэ Камисирайси, Рюноскэ Камики, Кана Ханадзава, Эцуко Итихара, Масами Нагасава, Рё Нарита, Нобунага Симадзаки, Кэнон Тани, Аой Юки- Девушка из японской провинции и юноша из Токио обнаруживают, что между ними есть странная необъяснимая связь — они начинают «чувствовать» друг друга через сны.-- --Качество :BDRip 1080p
Формат: MKV
Видео кодек: H264
Видео: 8424Kбит/сек,1920х1080(16.9),в 23.976кадр/сек, AVC (High10@L5)(CABAC/4 Ref Frames)-Аудио Кодек:AC3
Аудио Кодек:DTS--Аудио #1:AC3 , 640 Kbps, 48.0 KHz, 6 ch- -Профессиональный многоголосый - AlexFilm- Русский
Аудио #2:DTS, 3968 Kbps, 48.0 KHz,6 ch - -Профессиональный многоголосый - AlexFilm- Русский
Аудио #3:AC3 , 384 Kbps, 48.0 KHz, 6 ch- - Профессиональный многоголосый - SHIZA- Русский
Аудио #4:AC3 , 192 Kbps, 48.0 KHz, 6 ch- - Профессиональный многоголосый -STEPonee- Русский
Аудио #5: AC3, 640 Kbps, 48.0 KHz,6 ch - - Профессиональный многоголосый -Японский - Оригинал
b]Аудио #6:
DTS, 3968 Kbps, 48.0 KHz,6 ch - -Профессиональный многоголосый -Японский - Оригинал--

Доп. информация:

Звуковая дорожка сделана путем наложения чистого голоса озвучивателей на центральный канал оригинальной дорожки. Качество идентично звуковой дорожке.
--

MediaInfo сезона

Общее
Уникальный идентификатор : 240363547000600903232454775953914796208 (0xB4D455D44DEF83559DF316BC227B18B0)
Полное имя : E:\ПИРАТИЯ(PIRATIYA)\ТВОЁ ИМЯ ( Kimi no Na wa ) (Your Name )\Kimi_no_Na_wa_2016_3хRus[AlexFilm_SHIZA_STEPonee]_Jap_DD5.1_N.B_BDRip_1080p\Kimi_no_Na_wa_2016_3хRus[AlexFilm_SHIZA_STEPonee]_Jap_DD5.1_N.B_BDRip_1080p.mkv
Формат : Matroska
Версия формата : Version 4 / Version 2
Размер файла : 13,7 Гбайт
Продолжительность : 1 ч. 46 м.
Общий поток : 18,4 Мбит/сек
Название фильма : Kimi no Na wa 2016 @ Nikolai.Baranov & PIRATIYA
Дата кодирования : UTC 2017-08-02 05:25:28
Программа кодирования : mkvmerge v14.0.0 ('Flow') 64bit
Библиотека кодирования : libebml v1.3.4 + libmatroska v1.4.5
Видео
Идентификатор : 1
Формат : AVC
Формат/Информация : Advanced Video Codec
Профиль формата : High 10@L5
Параметр CABAC формата : Да
Параметр RefFrames формата : 4 кадра
Идентификатор кодека : V_MPEG4/ISO/AVC
Продолжительность : 1 ч. 46 м.
Битрейт : 8424 Кбит/сек
Ширина : 1920 пикселей
Высота : 1080 пикселей
Соотношение сторон : 16:9
Режим частоты кадров : Постоянный
Частота кадров : 23,976 (24000/1001) кадра/сек
Цветовое пространство : YUV
Субдискретизация насыщенности : 4:2:0
Битовая глубина : 10 бит
Тип развёртки : Прогрессивная
Бит/(Пиксели*Кадры) : 0.169
Размер потока : 6,27 Гбайт (46%)
Заголовок : Kimi_no_Na_wa_2016_3хRus[AlexFilm_SHIZA_STEPonee]_Jap_DD5.1_N.B_BDRip_1080p
Библиотека кодирования : x264 core 152 r2851M ba24899 (DJATOM's build)
Настройки программы : cabac=1 / ref=4 / deblock=1:1:-1 / analyse=0x3:0x113 / me=umh / subme=9 / psy=1 / psy_rd=1.00:0.00 / mixed_ref=1 / me_range=32 / chroma_me=1 / trellis=2 / 8x8dct=1 / cqm=0 / deadzone=21,11 / fast_pskip=1 / chroma_qp_offset=-2 / threads=34 / lookahead_threads=5 / sliced_threads=0 / nr=0 / decimate=1 / interlaced=0 / bluray_compat=0 / constrained_intra=0 / bframes=9 / b_pyramid=2 / b_adapt=2 / b_bias=0 / direct=1 / weightb=1 / open_gop=0 / weightp=2 / keyint=240 / keyint_min=23 / scenecut=40 / intra_refresh=0 / rc=crf / mbtree=0 / crf=15.0000 / qcomp=0.72 / qpmin=0 / qpmax=81 / qpstep=4 / ip_ratio=1.40 / pb_ratio=1.30 / aq=1:0.85
Язык : Russian
Default : Да
Forced : Нет
Цветовой диапазон : Limited
Основные цвета : BT.709
Характеристики трансфера : BT.709
Коэффициенты матрицы : BT.709
Аудио #1
Идентификатор : 8
Формат : AC-3
Формат/Информация : Audio Coding 3
Параметр Endianness формата : Big
Идентификатор кодека : A_AC3
Продолжительность : 1 ч. 46 м.
Вид битрейта : Постоянный
Битрейт : 640 Кбит/сек
Каналы : 6 каналов
Расположение каналов : Front: L C R, Side: L R, LFE
Частота : 48,0 КГц
Частота кадров : 31,250 кадров/сек (1536 SPF)
Битовая глубина : 16 бит
Метод сжатия : С потерями
Размер потока : 488 Мбайт (3%)
Заголовок : MVO AlexFilm @DD5.1 AC3, 640 Kbps, 48.0 KHz, 6 ch
Язык : Russian
ServiceKind/String : Complete Main
Default : Да
Forced : Нет
Аудио #2
Идентификатор : 9
Формат : DTS
Формат/Информация : Digital Theater Systems
Режим : 16
Параметр Endianness формата : Big
Идентификатор кодека : A_DTS
Продолжительность : 1 ч. 46 м.
Вид битрейта : Постоянный
Битрейт : 3968 Кбит/сек
Каналы : 6 каналов
Расположение каналов : Front: L C R, Side: L R, LFE
Частота : 48,0 КГц
Частота кадров : 46,875 кадров/сек (1024 SPF)
Битовая глубина : 16 бит
Метод сжатия : С потерями
Размер потока : 2,95 Гбайт (21%)
Заголовок : MVO AlexFilm @DTS,3968 Kbps, 48.0 KHz, 6 ch
Язык : Russian
Default : Нет
Forced : Нет
Аудио #3
Идентификатор : 10
Формат : AC-3
Формат/Информация : Audio Coding 3
Параметр Endianness формата : Big
Идентификатор кодека : A_AC3
Продолжительность : 1 ч. 46 м.
Вид битрейта : Постоянный
Битрейт : 384 Кбит/сек
Каналы : 6 каналов
Расположение каналов : Front: L C R, Side: L R, LFE
Частота : 48,0 КГц
Частота кадров : 31,250 кадров/сек (1536 SPF)
Битовая глубина : 16 бит
Метод сжатия : С потерями
Размер потока : 293 Мбайт (2%)
Заголовок : MVO SHIZA @DD5.1 AC3, 384 Kbps, 48.0 KHz, 6 ch
Язык : Russian
ServiceKind/String : Complete Main
Default : Нет
Forced : Нет
Аудио #4
Идентификатор : 11
Формат : AC-3
Формат/Информация : Audio Coding 3
Параметр Endianness формата : Big
Идентификатор кодека : A_AC3
Продолжительность : 1 ч. 46 м.
Вид битрейта : Постоянный
Битрейт : 384 Кбит/сек
Каналы : 6 каналов
Расположение каналов : Front: L C R, Side: L R, LFE
Частота : 48,0 КГц
Частота кадров : 31,250 кадров/сек (1536 SPF)
Битовая глубина : 16 бит
Метод сжатия : С потерями
Размер потока : 293 Мбайт (2%)
Заголовок : MVO STEPonee @DD5.1 AC3, 192 Kbps, 48.0 KHz, 6 ch
Язык : Russian
ServiceKind/String : Complete Main
Default : Нет
Forced : Нет
Аудио #5
Идентификатор : 12
Формат : AC-3
Формат/Информация : Audio Coding 3
Параметр Endianness формата : Big
Идентификатор кодека : A_AC3
Продолжительность : 1 ч. 46 м.
Вид битрейта : Постоянный
Битрейт : 640 Кбит/сек
Каналы : 6 каналов
Расположение каналов : Front: L C R, Side: L R, LFE
Частота : 48,0 КГц
Частота кадров : 31,250 кадров/сек (1536 SPF)
Битовая глубина : 16 бит
Метод сжатия : С потерями
Размер потока : 488 Мбайт (3%)
Заголовок : Original @DD5.1 AC3 ,640 Kbps, 48.0 KHz, 6 ch
Язык : Japanese
ServiceKind/String : Complete Main
Default : Нет
Forced : Нет
Аудио #6
Идентификатор : 13
Формат : DTS
Формат/Информация : Digital Theater Systems
Режим : 16
Параметр Endianness формата : Big
Идентификатор кодека : A_DTS
Продолжительность : 1 ч. 46 м.
Вид битрейта : Постоянный
Битрейт : 3968 Кбит/сек
Каналы : 6 каналов
Расположение каналов : Front: L C R, Side: L R, LFE
Частота : 48,0 КГц
Частота кадров : 46,875 кадров/сек (1024 SPF)
Битовая глубина : 16 бит
Метод сжатия : С потерями
Размер потока : 2,95 Гбайт (21%)
Заголовок : Original @DTS,3968 Kbps, 48.0 KHz, 6 ch
Язык : Japanese
Default : Нет
Forced : Нет
Текст #1
Идентификатор : 2
Формат : ASS
Идентификатор кодека : S_TEXT/ASS
Идентификатор кодека/Информация : Advanced Sub Station Alpha
Продолжительность : 1 ч. 35 м.
Битрейт : 7 бит/сек
ElementCount : 66
Метод сжатия : Без потерь
Размер потока : 5,04 Кбайт (0%)
Заголовок : Rus - Forced
Язык : Russian
Default : Да
Forced : Нет
Текст #2
Идентификатор : 3
Формат : ASS
Идентификатор кодека : S_TEXT/ASS
Идентификатор кодека/Информация : Advanced Sub Station Alpha
Продолжительность : 1 ч. 40 м.
Битрейт : 106 бит/сек
ElementCount : 1116
Метод сжатия : Без потерь
Размер потока : 78,3 Кбайт (0%)
Заголовок : Rus
Язык : Russian
Default : Нет
Forced : Нет
Текст #3
Идентификатор : 4
Формат : PGS
Режим смешивания : zlib
Идентификатор кодека : S_HDMV/PGS
Идентификатор кодека/Информация : Picture based subtitle format used on BDs/HD-DVDs
Продолжительность : 1 ч. 45 м.
Битрейт : 30,7 Кбит/сек
ElementCount : 2456
Размер потока : 23,2 Мбайт (0%)
Заголовок : ENG
Язык : English
Default : Нет
Forced : Нет
Текст #4
Идентификатор : 5
Формат : PGS
Режим смешивания : zlib
Идентификатор кодека : S_HDMV/PGS
Идентификатор кодека/Информация : Picture based subtitle format used on BDs/HD-DVDs
Продолжительность : 1 ч. 45 м.
Битрейт : 27,2 Кбит/сек
ElementCount : 2297
Размер потока : 20,5 Мбайт (0%)
Заголовок : ENG - SONG
Язык : English
Default : Нет
Forced : Нет
Текст #5
Идентификатор : 6
Формат : PGS
Режим смешивания : zlib
Идентификатор кодека : S_HDMV/PGS
Идентификатор кодека/Информация : Picture based subtitle format used on BDs/HD-DVDs
Продолжительность : 1 ч. 45 м.
Битрейт : 40,6 Кбит/сек
ElementCount : 3515
Размер потока : 30,6 Мбайт (0%)
Заголовок : JPN
Язык : Japanese
Default : Нет
Forced : Нет
Текст #6
Идентификатор : 7
Формат : PGS
Режим смешивания : zlib
Идентификатор кодека : S_HDMV/PGS
Идентификатор кодека/Информация : Picture based subtitle format used on BDs/HD-DVDs
Продолжительность : 1 ч. 45 м.
Битрейт : 32,4 Кбит/сек
ElementCount : 2919
Размер потока : 24,4 Мбайт (0%)
Заголовок : CHI
Язык : Chinese
Default : Нет
Forced : Нет
Меню
00:00:00.000 : en:Глава 01 / en:Глава 01 / en:Глава 01 / en:Глава 01 / en:Глава 01 / en:Глава 01 / en:Глава 01 / en:Глава 01 / en:Глава 01 / en:Глава 01 / en:Глава 01 / en:Глава 01 / en:Глава 01
--

Скриншоты

-- -- -- --Релиз от: Nikolai.Baranov & PIRATIYA -- -- -- --
[Профиль] [ЛС]
Кто просматривает тему:

Показать сообщения:    

Текущее время: Сегодня 05:54

Часовой пояс: GMT



Вы не можете начинать темы
Вы не можете отвечать на сообщения
Вы не можете редактировать свои сообщения
Вы не можете удалять свои сообщения
Вы не можете голосовать в опросах
Вы не можете прикреплять файлы к сообщениям
Вы не можете скачивать файлы