Твин Пикс / Twin Peaks [S02] (1990-1991) BDRip-AVC | iPad

 
Автор Сообщение

Белочка ®

Пол:

Стаж: 5 лет 1 месяц

Сообщений: 2089



Награды: 1 (Подробнее)

Girls (Количество: 1)
Торрент-статистика

Создавать темы 01-Дек-2014 20:57

[Цитировать]

Информация о фильме
Название: Твин Пикс
Оригинальное название: Twin Peaks
Год выхода: 1990-1991
Жанр: триллер, драма, криминал, детектив
Режиссер: Дэвид Линч, Дайан Китон, Джонатан Сэнгер
В ролях: Кайл МакЛахлан, Майкл Онткин, Шерил Ли, Лара Флинн Бойл, Шерилин Фенн, Рэй Уайз, Мигель Феррер, Дэвид Линч, Билли Зейн, Хезер Грэм, Мэдчен Эмик, Дэна Эшбрук, Ричард Беймер, Уоррен Фрост, Пегги Липтон, Джеймс Маршалл, Эверет МакГилл, Джек Нэнс, Джоан Чен, Кимми Робертсон, Майкл Хорс, Пайпер Лори, Гарри Гоаз, Эрик ДаРе, Уэнди Роби, Расс Тэмблин, Дон С. Дэвис, Крис Малки, Гаррисон Хершбергер, Грэйс Забриски, Катрин Э. Колсон, Йен Бьюкэнэн, Мэри Джо Дешанель, Фрэнк Силва, Кеннет Уэлш, Аль Штробель, Дэвид Патрик Келли, Джон Бойлэн, Виктория Кэтлин
О фильме:
Основная сюжетная линия фильма - история расследования специальным агентом ФБР Дейлом Купером загадочного убийства юной школьницы Лоры Палмер, которая, казалось бы, была примерна во всех отношениях. Позднее откроется, что между видимым и реальным была невероятная пропасть. История начинается с известия о находке обнаженного тела, завернутого в полиэтилен и выброшенного волнами на берег озера. В ходе расследования перед внимательными взглядами агента Купера, шерифа Трумена и его помощников проходят разные жители Твин Пикс. Постепенно зритель открывает для себя поражающее многообразие сторон жизни этого, на первый взгляд, тихого и мирного городка: от драматической романтики до леденящего, мистического ужаса. Режиссер картины, Дэвид Линч, позднее скажет в одном из интервью: «Твин Пикс - везде. Это не место. Это состояние".
Страна: США
Студия: Lynch Frost Productions, Propaganda Films, Spelling Entertainment, Twin Peaks Productions Inc.
Продолжительность: 1 серия (∼94 мин) + 21 серия (∼47 мин) = 18ч 03мин 27с
Файл
Формат: m4v
Качество: BDRip-AVC
Видео: H.264, 768x576 (4:3), ∼2450 kbps, 23,976 fps
Звук: AAC, 2 channels, 48.0 KHz, 96-160 kbps VBR
Аудио 1: Русский - профессиональный многоголосый | Sci-Fi
Аудио 2: Русский - профессиональный многоголосый | ОРТ
Аудио 3: Русский - авторский одноголосый | Сербин
Аудио 4: Английский - оригинал
Субтитры: русские, английские
Метатэги: прописаны
Навигация по главам: есть
Раздача будет полезна пользователям iOS и OS X платформ.
При просмотре на Windows рекомендую пользоваться iTunes или VLC media player.

Скриншоты

MI & x264 log

1 серия
x264 [info]: frame I:1004 Avg QP:14.38 size: 94234 PSNR Mean Y:48.90 U:51.32 V:52.08 Avg:49.64 Global:48.68
x264 [info]: frame P:23007 Avg QP:17.68 size: 29283 PSNR Mean Y:45.40 U:48.56 V:49.48 Avg:46.27 Global:45.83
x264 [info]: frame B:111532 Avg QP:20.23 size: 9298 PSNR Mean Y:43.38 U:47.64 V:48.84 Avg:44.45 Global:43.88
x264 [info]: consecutive B-frames: 1.3% 0.4% 1.4% 5.7% 13.6% 48.7% 12.2% 4.2% 4.4% 4.3% 2.3% 1.6%
x264 [info]: mb I I16..4: 4.5% 73.3% 22.2%
x264 [info]: mb P I16..4: 0.7% 7.1% 0.7% P16..4: 38.1% 31.2% 17.5% 0.0% 0.0% skip: 4.7%
x264 [info]: mb B I16..4: 0.0% 1.4% 0.1% B16..8: 42.3% 10.3% 3.2% direct: 5.7% skip:37.0% L0:48.2% L1:44.1% BI: 7.6%
x264 [info]: 8x8 transform intra:85.2% inter:60.7%
x264 [info]: coded y,uvDC,uvAC intra: 92.8% 86.6% 66.1% inter: 28.2% 23.4% 4.5%
x264 [info]: i16 v,h,dc,p: 58% 13% 11% 19%
x264 [info]: i8 v,h,dc,ddl,ddr,vr,hd,vl,hu: 9% 7% 12% 10% 13% 12% 12% 11% 12%
x264 [info]: i4 v,h,dc,ddl,ddr,vr,hd,vl,hu: 9% 9% 6% 10% 14% 13% 13% 12% 14%
x264 [info]: i8c dc,h,v,p: 45% 21% 19% 16%
x264 [info]: Weighted P-Frames: Y:4.0% UV:1.9%
x264 [info]: ref P L0: 37.5% 8.8% 20.8% 7.7% 8.2% 5.1% 5.7% 2.7% 3.3% 0.2% 0.0%
x264 [info]: ref B L0: 59.9% 15.8% 9.0% 5.3% 4.0% 3.6% 1.8% 0.6%
x264 [info]: ref B L1: 88.8% 11.2%
x264 [info]: SSIM Mean Y:0.9703084 (15.274db)
x264 [info]: PSNR Mean Y:43.765 U:47.823 V:48.976 Avg:44.797 Global:44.180 kb/s:2554.82
General
Format : MPEG-4
Codec ID : M4V
File size : 2.07 GiB
Duration : 1h 34mn
Overall bit rate mode : Variable
Overall bit rate : 3 150 Kbps
Collection : Twin Peaks
Season : 2
Album : Twin Peaks
Album/Sorted by : Twin Peaks, Season 2
Album/Performer : Twin Peaks
Part : 1
Part/Position : 1
Part/Total : 1
Track name : May The Giant Be With You
Track name/Position : 1
Track name/Total : 22
Performer : Twin Peaks
Director : David Lynch / Mark Frost
Actor : Kyle MacLachlan / Michael Ontkean / Sheryl Lee / Catherine E. Coulson / Heather Graham / Kenneth Welsh / Frank Silva / Russ Tamblyn / Wendy Robie / Eric DaRe / Harry Goaz / Michael Horse / Piper Laurie / Warren Frost / Kimmy Robertson / Ray Wise / Joan Chen / Jack Nance / Everett McGill / James Marshall / Peggy Lipton / Richard Beymer / Mädchen Amick / Dana Ashbrook / Lara Flynn Boyle / Sherilyn Fenn / Chris Mulkey / Victoria Catlin / Galyn Gorg / Stephen C. MacLaughlin / Charles Miller / Mak Takano / Jessica Wallenfels / Sandra Keye Wetzel / Alicia Witt / Mark Frost / Hank Worden
Screenplay by : Mark Frost
Genre : Drama
ContentType : TV Show
Deion : A wounded Agent Cooper has a vision of a giant who gives him several clues about the murder of Laura Palmer. Shelly and Pete recover from the mill fire, but Josie and Catherine are missing. Ben and Jerry Horne are not pleased with how the mill fire plan unfolded. Leland Palmer's attitude changes with his hair color. Albert returns to assist the wounded Cooper. Donna gets a mysterious message about Meals on Wheels. Dr. Jacoby recovers from his heart attack, but cannot remember who killed Jacques. Major Briggs has a vision of good things for Bobby. Nadine is in a coma. Leo is a vegetable. Ronnette awakes from her coma after a horrific dream about Bob. / Season two of Twin Peaks picks up where season one ends - with the shooting of Agent Cooper (May The Giant Be With You). Soon the diary of Laura Palmer is found (The Man Behind The Glass), the one-armed man escapes custody (Drive With A Dead Girl), a rivalry between Cooper and Earle is revealed, Cooper is reinstated to the FBI (On The Wings Of Love) and the town crowns its queen (Miss Twin Peaks).
Recorded date : 1990-09-30
Encoded date : UTC 2014-11-27 11:41:52
Tagged date : UTC 2014-11-28 11:14:47
Cover : Yes
Rating : None
TVNetworkName : ABC
Part_ID : 201
LongDeion : A wounded Agent Cooper has a vision of a giant who gives him several clues about the murder of Laura Palmer. Shelly and Pete recover from the mill fire, but Josie and Catherine are missing. Ben and Jerry Horne are not pleased with how the mill fire plan unfolded. Leland Palmer's attitude changes with his hair color. Albert returns to assist the wounded Cooper. Donna gets a mysterious message about Meals on Wheels. Dr. Jacoby recovers from his heart attack, but cannot remember who killed Jacques. Major Briggs has a vision of good things for Bobby. Nadine is in a coma. Leo is a vegetable. Ronnette awakes from her coma after a horrific dream about Bob.
AppleStoreCountry : United States
AppleStoreCatalogID : 364911411
AlbumTitleID : 363775603
PlayListID : 363775744
ContentRating : us-tv|TV-PG|400|
Video #1
ID : 1
Format : AVC
Format/Info : Advanced Video Codec
Format profile : High@L3.1
Format settings, CABAC : Yes
Format settings, ReFrames : 9 frames
Codec ID : avc1
Codec ID/Info : Advanced Video Coding
Duration : 1h 34mn
Bit rate : 2 555 Kbps
Maximum bit rate : 13.9 Mbps
Width : 768 pixels
Height : 576 pixels
Display aspect ratio : 4:3
Frame rate mode : Constant
Frame rate : 23.976 fps
Color space : YUV
Chroma subsampling : 4:2:0
Bit depth : 8 bits
Scan type : Progressive
Bits/(Pixel*Frame) : 0.241
Stream size : 1.68 GiB (81%)
Writing library : x264 core 130 r2273 b3065e6
Encoding settings : cabac=1 / ref=9 / deblock=1:0:0 / analyse=0x3:0x113 / me=umh / subme=10 / psy=1 / psy_rd=1.00:0.00 / mixed_ref=1 / me_range=32 / chroma_me=1 / trellis=2 / 8x8dct=1 / cqm=0 / deadzone=21,11 / fast_pskip=1 / chroma_qp_offset=-2 / threads=6 / lookahead_threads=1 / sliced_threads=0 / nr=0 / decimate=1 / interlaced=0 / bluray_compat=0 / constrained_intra=0 / bframes=11 / b_pyramid=2 / b_adapt=2 / b_bias=0 / direct=1 / weightb=1 / open_gop=0 / weightp=2 / keyint=240 / keyint_min=24 / scenecut=40 / intra_refresh=0 / rc_lookahead=40 / rc=crf / mbtree=1 / crf=17.5 / qcomp=0.60 / qpmin=0 / qpmax=69 / qpstep=4 / ip_ratio=1.40 / aq=1:1.00
Language : English
Encoded date : UTC 2014-11-27 11:41:52
Tagged date : UTC 2014-11-27 11:42:45
Color primaries : BT.709
Transfer characteristics : BT.709
Matrix coefficients : BT.709
Color range : Limited
Video #2
ID : 10
Format : JPEG
Codec ID : jpeg
Duration : 1h 34mn
Bit rate mode : Variable
Bit rate : 444 bps
Width : 640 pixels
Height : 480 pixels
Display aspect ratio : 4:3
Frame rate mode : Variable
Frame rate : 0.001 fps
Minimum frame rate : 0.001 fps
Maximum frame rate : 0.015 fps
Color space : YUV
Chroma subsampling : 4:2:0
Bit depth : 8 bits
Compression mode : Lossy
Bits/(Pixel*Frame) : 1.445
Stream size : 434 KiB (0%)
Language : English
Encoded date : UTC 2014-11-27 13:42:54
Tagged date : UTC 2014-11-27 13:42:55
Audio #1
ID : 2
Format : AAC
Format/Info : Advanced Audio Codec
Format profile : LC
Codec ID : 40
Duration : 1h 34mn
Bit rate mode : Variable
Bit rate : 113 Kbps
Maximum bit rate : 188 Kbps
Channel(s) : 2 channels
Channel positions : Front: L R
Sampling rate : 48.0 KHz
Compression mode : Lossy
Stream size : 76.3 MiB (4%)
Title : Sci_Fi / MVO | Sci-Fi
Language : Russian
Encoded date : UTC 2014-11-27 11:18:44
Tagged date : UTC 2014-11-27 11:42:45
Audio #2
ID : 3
Format : AAC
Format/Info : Advanced Audio Codec
Format profile : LC
Codec ID : 40
Duration : 1h 34mn
Bit rate mode : Variable
Bit rate : 132 Kbps
Maximum bit rate : 203 Kbps
Channel(s) : 2 channels
Channel positions : Front: L R
Sampling rate : 48.0 KHz
Compression mode : Lossy
Stream size : 89.4 MiB (4%)
Title : ORT / MVO | OPT
Language : Russian
Encoded date : UTC 2014-11-27 11:24:34
Tagged date : UTC 2014-11-27 11:42:45
Audio #3
ID : 4
Format : AAC
Format/Info : Advanced Audio Codec
Format profile : LC
Codec ID : 40
Duration : 1h 34mn
Bit rate mode : Variable
Bit rate : 163 Kbps
Maximum bit rate : 223 Kbps
Channel(s) : 2 channels
Channel positions : Front: L R
Sampling rate : 48.0 KHz
Compression mode : Lossy
Stream size : 110 MiB (5%)
Title : Jurij Serbin / AVO | Serbin
Language : Russian
Encoded date : UTC 2014-11-27 11:31:46
Tagged date : UTC 2014-11-27 11:42:45
Audio #4
ID : 5
Format : AAC
Format/Info : Advanced Audio Codec
Format profile : LC
Codec ID : 40
Duration : 1h 34mn
Bit rate mode : Variable
Bit rate : 167 Kbps
Maximum bit rate : 302 Kbps
Channel(s) : 2 channels
Channel positions : Front: L R
Sampling rate : 48.0 KHz
Compression mode : Lossy
Stream size : 112 MiB (5%)
Title : Original
Language : English
Encoded date : UTC 2014-11-27 11:39:03
Tagged date : UTC 2014-11-27 11:42:45
Text #1
ID : 6
Format : Timed Text
Muxing mode : sbtl
Codec ID : tx3g
Duration : 1h 32mn
Bit rate mode : Variable
Bit rate : 80 bps
Stream size : 54.3 KiB (0%)
Title : Rus
Language : Russian
Encoded date : UTC 2014-11-27 11:42:45
Tagged date : UTC 2014-11-27 11:42:45
Text #2
ID : 7
Format : Timed Text
Muxing mode : sbtl
Codec ID : tx3g
Duration : 1h 32mn
Bit rate mode : Variable
Bit rate : 58 bps
Stream size : 39.4 KiB (0%)
Title : Eng
Language : English
Encoded date : UTC 2014-11-27 11:42:45
Tagged date : UTC 2014-11-27 11:42:45
Text #3
ID : 8
Format : Timed Text
Muxing mode : sbtl
Codec ID : tx3g
Duration : 1h 33mn
Bit rate mode : Variable
Bit rate : 60 bps
Stream size : 40.7 KiB (0%)
Title : SDH / Eng SDH
Language : English
Encoded date : UTC 2014-11-27 11:42:45
Tagged date : UTC 2014-11-27 11:42:45
Menu
ID : 9
Codec ID : text
Duration : 1h 34mn
Language : English
Encoded date : UTC 2014-11-27 11:43:14
Tagged date : UTC 2014-11-27 11:43:14
Bit rate mode : CBR
00:00:00.000 : Chapter 1
00:22:14.207 : Chapter 2
00:32:54.138 : Chapter 3
00:42:45.980 : Chapter 4
00:59:21.182 : Chapter 5
01:08:45.287 : Chapter 6
01:18:21.446 : Chapter 7
01:33:06.998 : Chapter 8
[Профиль] [ЛС]
Кто просматривает тему:

Показать сообщения:    

Текущее время: Сегодня 06:06

Часовой пояс: GMT



Вы не можете начинать темы
Вы не можете отвечать на сообщения
Вы не можете редактировать свои сообщения
Вы не можете удалять свои сообщения
Вы не можете голосовать в опросах
Вы не можете прикреплять файлы к сообщениям
Вы не можете скачивать файлы