Твин Пикс / Twin Peaks (1990) BDRemux [1080p] (Сезон 1, серии 1-8 из 8) [Ю. Сербин]

 
Автор Сообщение

sergej644 ®

Пол:

Стаж: 4 года 11 месяцев

Сообщений: 6041

Откуда: Soviet Union



Награды: Нет

Торрент-статистика

Создавать темы 08-Авг-2014 14:20

[Цитировать]

-Твин Пикс / Twin Peaks (1990) BDRemux
«A town where everyone knows everyone and nothing is what it seems»
- Год выпуска: 1990
Производство: США / Lynch/Frost Productions, Propaganda Films, Spelling Entertainment, Twin Peaks Productions Inc.
Жанр: Триллер, драма, криминал, детектив
Описание фильма:
История начинается с известия о находке обнаженного тела Лоры Палмер, «завернутого в полиэтилен» и выброшенного волнами на берег озера. В ходе расследования перед внимательными взглядами агента Купера, шерифа Трумана и его помощников проходят разные жители Твин Пикс. Постепенно зритель открывает для себя темную и страшную сторону жизни обитателей на первый взгляд тихого и мирного городка.
Режиссер: Дэвид Линч / David Lynch, Марк Фрост / Mark Frost, Лесли Линка Глаттер / Lesli Linka Glatter, Калеб Дешанель / Caleb Deschanel
Продюсер: Марк Фрост, Дэвид Линч, Грегг Финберг, Тим Харберт
Актеры: Кайл МакЛоклен, Майкл Онткин, Шерил Ли, Лара Флинн Бойл, Шерилин Фенн, Рэй Уайз, Мигель Феррер, Дэвид Линч, Билли Зейн, Хэзер Грэм, Медкен Эмик, Дэна Эшбрук, Ричард Беймер, Уоррен Фрост
Язык: Русский, английский
Перевод: Одноголосый закадровый (авторский)
Озвучка / Автор перевода: Ю. Сербин
Вид субтитров: Вшитые отключаемые
Язык субтитров: Русский (Киномания, Оборотень БОБ), английский

Дата мировой премьеры: 8 апреля 1990
Дата российской премьеры: 4 ноября 1993
Возраст: 16+ (зрителям, достигшим 16 лет)
Продолжительность: 01:34:03 + 7 ~00:46:00
Качество видео: BDRemux
Видео: MPEG-4 AVC/H.264 (High Profile 4.1), 1920x1080, ~17300-20000 kbps, 23.976 fps
Аудио 1: DTS HD-MA 7.1, ~4400-5100 kbps, 48 KHz, 24-bit [Русский - одноголосый закадровый «Ю. Сербин»]
Аудио 2: DTS-HD MA 7.1, ~4400-5100 kbps, 48 KHz, 24-bit [Английский - оригинал]

«Пилот (Происшествие на северо-запад) / Pilot (Northwest Passage)»

Прoдолжительность: 01:34:03
Описaние: Городок Твин Пикс в штате Вашингтон потрясён — на берегу реки найден завёрнутый в полиэтилен труп школьницы Лоры Палмер. Вскоре на мосту в невменяемом состоянии обнаружена её одноклассница Роннетт Пуласки, и местный шериф Гарри Трумэн вызывает ФБР. Прибывает агент Дейл Купер, который видит связь между смертью Лоры и прошлогодним убийством другой девушки (Терезы Бэнкс)[2]. Из-под ногтя Лоры изъят кусочек бумаги (с литерой R), подобный тому, который был ранее найден под ногтём Терезы (буква T), и Купер делает вывод, что это дело рук одного и того же преступника. Тем временем шериф Трумэн арестовывает приятеля Лоры — Бобби Бриггса, у которого тайные отношения с замужней женщиной по имени Шелли Джонсон. Мать Лоры видит ужасающий кошмар.

BDInfo Report

DISC INFO:
Disc Title:     Episode.00-Pilot
Disc Size:      22 634 592 764 bytes
Protection:     AACS
BD-Java:        No
BDInfo:         0.5.8
PLAYLIST REPORT:
Name:                   00000.MPLS
Length:                 1:34:03.971 (h:m:s.ms)
Size:                   22 634 514 432 bytes
Total Bitrate:          32.08 Mbps
VIDEO:
Codec                   Bitrate             Description
-----                   -------             -----------
MPEG-4 AVC Video        20027 kbps          1080p / 23.976 fps / 16:9 / High Profile 4.1
AUDIO:
Codec                           Language        Bitrate         Description
-----                           --------        -------         -----------
DTS-HD Master Audio             Russian         5057 kbps       7.1 / 48 kHz / 5057 kbps / 24-bit (DTS Core: 5.1 / 48 kHz / 1509 kbps / 24-bit)
DTS-HD Master Audio             English         5037 kbps       7.1 / 48 kHz / 5037 kbps / 24-bit (DTS Core: 5.1 / 48 kHz / 1509 kbps / 24-bit)
SUBTITLES:
Codec                           Language        Bitrate         Description
-----                           --------        -------         -----------
Presentation Graphics           Russian         25.164 kbps
Presentation Graphics           Russian         28.222 kbps
Presentation Graphics           English         29.737 kbps
FILES:
Name            Time In         Length          Size            Total Bitrate
----            -------         ------          ----            -------------
00000.M2TS      0:00:00.000     1:34:03.971     22 634 514 432  32 079
CHAPTERS:
Number          Time In         Length          Avg Video Rate  Max 1-Sec Rate  Max 1-Sec Time  Max 5-Sec Rate  Max 5-Sec Time  Max 10Sec Rate  Max 10Sec Time  Avg Frame Size  Max Frame Size  Max Frame Time
------          -------         ------          --------------  --------------  --------------  --------------  --------------  --------------  --------------  --------------  --------------  --------------
1               0:00:00.000     0:15:30.511     21 126 kbps     30 832 kbps     00:04:24.472    29 628 kbps     00:02:31.860    29 263 kbps     00:02:28.606    110 135 bytes   312 816 bytes   00:04:22.428
2               0:15:30.511     0:12:00.636     20 803 kbps     29 594 kbps     00:22:30.474    27 594 kbps     00:22:28.847    27 274 kbps     00:22:28.847    108 457 bytes   270 867 bytes   00:27:29.064
3               0:27:31.148     0:16:43.376     18 136 kbps     29 546 kbps     00:44:13.525    25 952 kbps     00:27:31.399    25 097 kbps     00:27:31.149    94 553 bytes    269 813 bytes   00:34:10.631
4               0:44:14.524     0:08:29.761     20 843 kbps     29 330 kbps     00:45:17.798    26 360 kbps     00:48:39.374    25 171 kbps     00:52:19.803    108 667 bytes   304 833 bytes   00:52:43.243
5               0:52:44.286     0:08:58.702     22 094 kbps     29 943 kbps     00:56:50.073    29 527 kbps     00:57:05.505    28 360 kbps     00:56:32.639    115 190 bytes   273 793 bytes   01:01:40.905
6               1:01:42.988     0:07:30.367     24 500 kbps     33 535 kbps     01:07:15.239    32 607 kbps     01:07:12.903    32 341 kbps     01:07:08.023    127 731 bytes   282 457 bytes   01:04:11.222
7               1:09:13.356     0:11:15.425     16 971 kbps     28 334 kbps     01:20:26.363    22 083 kbps     01:14:38.432    21 506 kbps     01:15:59.429    88 479 bytes    300 318 bytes   01:20:26.696
8               1:20:28.781     0:12:44.846     18 905 kbps     32 753 kbps     01:31:29.483    32 351 kbps     01:31:25.354    32 249 kbps     01:31:23.144    98 563 bytes    251 754 bytes   01:20:28.823
9               1:33:13.628     0:00:48.882     14 630 kbps     21 665 kbps     01:33:14.130    16 494 kbps     01:33:49.040    16 055 kbps     01:33:14.130    76 276 bytes    302 427 bytes   01:33:14.171
10              1:34:02.511     0:00:01.460     29 kbps         30 kbps         01:34:02.511    0 kbps          00:00:00.000    0 kbps          00:00:00.000    316 bytes       321 bytes       01:34:02.845
Скриншоты:

«Следы в никуда / Traces to Nowhere»

Прoдолжительность: 00:46:28
Описaние: Агент Купер продолжает расследование убийства Лоры Палмер. Допрошен Джеймс Харли — тайный друг Лоры. Также выясняется, что и водитель грузовика Лео Джонсон, и психиатр Лоры доктор Джекоби имеют какое-то отношение к преступлению. Лучшая подруга Лоры Донна Хейворд и Одри Хорн клянутся раскрыть это убийство.

BDInfo Report

DISC INFO:
Disc Title:     Episode.01-Traces.to.Nowhere
Disc Size:      10 686 888 420 bytes
Protection:     AACS
BD-Java:        No
BDInfo:         0.5.8
PLAYLIST REPORT:
Name:                   00000.MPLS
Length:                 0:46:28.327 (h:m:s.ms)
Size:                   10 686 849 024 bytes
Total Bitrate:          30.66 Mbps
VIDEO:
Codec                   Bitrate             Description
-----                   -------             -----------
MPEG-4 AVC Video        20003 kbps          1080p / 23.976 fps / 16:9 / High Profile 4.1
AUDIO:
Codec                           Language        Bitrate         Description
-----                           --------        -------         -----------
DTS-HD Master Audio             English         4346 kbps       7.1 / 48 kHz / 4346 kbps / 24-bit (DTS Core: 5.1 / 48 kHz / 1509 kbps / 24-bit)
DTS-HD Master Audio             Russian         4388 kbps       7.1 / 48 kHz / 4388 kbps / 24-bit (DTS Core: 5.1 / 48 kHz / 1509 kbps / 24-bit)
SUBTITLES:
Codec                           Language        Bitrate         Description
-----                           --------        -------         -----------
Presentation Graphics           Russian         30.921 kbps
Presentation Graphics           Russian         33.155 kbps
Presentation Graphics           English         35.102 kbps
FILES:
Name            Time In         Length          Size            Total Bitrate
----            -------         ------          ----            -------------
00000.M2TS      0:00:00.000     0:46:28.327     10 686 849 024  30 654
CHAPTERS:
Number          Time In         Length          Avg Video Rate  Max 1-Sec Rate  Max 1-Sec Time  Max 5-Sec Rate  Max 5-Sec Time  Max 10Sec Rate  Max 10Sec Time  Avg Frame Size  Max Frame Size  Max Frame Time
------          -------         ------          --------------  --------------  --------------  --------------  --------------  --------------  --------------  --------------  --------------  --------------
1               0:00:00.000     0:14:32.244     21 384 kbps     33 335 kbps     00:01:21.289    32 451 kbps     00:01:20.080    31 959 kbps     00:01:17.118    111 479 bytes   292 828 bytes   00:14:08.514
2               0:14:32.244     0:09:11.886     19 330 kbps     30 275 kbps     00:23:40.752    23 528 kbps     00:16:33.325    22 983 kbps     00:16:30.614    100 780 bytes   265 665 bytes   00:23:41.044
3               0:23:44.131     0:10:21.619     20 238 kbps     28 564 kbps     00:34:01.998    24 218 kbps     00:30:37.585    23 807 kbps     00:30:33.331    105 512 bytes   357 575 bytes   00:30:36.334
4               0:34:05.751     0:11:32.233     18 803 kbps     30 877 kbps     00:41:47.546    24 069 kbps     00:41:43.751    22 605 kbps     00:41:38.787    98 031 bytes    282 203 bytes   00:45:35.732
5               0:45:37.984     0:00:48.882     17 826 kbps     28 236 kbps     00:45:38.819    19 994 kbps     00:46:19.902    18 941 kbps     00:45:38.819    92 936 bytes    264 874 bytes   00:46:07.764
6               0:46:26.867     0:00:01.460     29 kbps         30 kbps         00:46:26.867    0 kbps          00:00:00.000    0 kbps          00:00:00.000    316 bytes       321 bytes       00:46:27.201
Скриншоты:

«Дзен, или Умение поймать убийцу / Zen, or the Skill to Catch a Killer»

Прoдолжительность: 00:48:16
Описaние: Агент Купер рассказывает шерифу Трумэну и его помощникам об уникальном методе сужения круга подозреваемых в убийстве Лоры Палмер. Бен Хорн встречает своего брата Джерри плохими новостями, и они решают, что надо наведаться в заведение под названием «Одноглазый Джек» (казино и бордель), принадлежащее Бену. В город прибывает агент ФБР Альберт Розенфилд — большой специалист в судебной медицине и криминалистике, но очень высокомерный и циничный. Джози Пэкард узнаёт, что Кэтрин Мартелл её обманывает. Ночью агент Купер видит странный сон, который переводит расследование убийства на совершенно новый уровень.

BDInfo Report

DISC INFO:
Disc Title:     Episode.02-Zen.or.the.Skill.to.Catch.a.Killer
Disc Size:      11 599 378 700 bytes
Protection:     AACS
BD-Java:        No
BDInfo:         0.5.8
PLAYLIST REPORT:
Name:                   00000.MPLS
Length:                 0:48:16.810 (h:m:s.ms)
Size:                   11 599 337 472 bytes
Total Bitrate:          32.03 Mbps
VIDEO:
Codec                   Bitrate             Description
-----                   -------             -----------
MPEG-4 AVC Video        20075 kbps          1080p / 23.976 fps / 16:9 / High Profile 4.1
AUDIO:
Codec                           Language        Bitrate         Description
-----                           --------        -------         -----------
DTS-HD Master Audio             Russian         5016 kbps       7.1 / 48 kHz / 5016 kbps / 24-bit (DTS Core: 5.1 / 48 kHz / 1509 kbps / 24-bit)
DTS-HD Master Audio             English         4992 kbps       7.1 / 48 kHz / 4992 kbps / 24-bit (DTS Core: 5.1 / 48 kHz / 1509 kbps / 24-bit)
SUBTITLES:
Codec                           Language        Bitrate         Description
-----                           --------        -------         -----------
Presentation Graphics           Russian         21.044 kbps
Presentation Graphics           Russian         22.793 kbps
Presentation Graphics           English         24.418 kbps
FILES:
Name            Time In         Length          Size            Total Bitrate
----            -------         ------          ----            -------------
00000.M2TS      0:00:00.000     0:48:16.810     11 599 337 472  32 026
CHAPTERS:
Number          Time In         Length          Avg Video Rate  Max 1-Sec Rate  Max 1-Sec Time  Max 5-Sec Rate  Max 5-Sec Time  Max 10Sec Rate  Max 10Sec Time  Avg Frame Size  Max Frame Size  Max Frame Time
------          -------         ------          --------------  --------------  --------------  --------------  --------------  --------------  --------------  --------------  --------------  --------------
1               0:00:00.000     0:17:24.166     17 637 kbps     37 816 kbps     00:01:21.289    37 066 kbps     00:01:20.121    36 600 kbps     00:01:17.118    91 947 bytes    279 934 bytes   00:17:21.081
2               0:17:24.166     0:10:12.653     20 930 kbps     33 945 kbps     00:17:24.710    29 391 kbps     00:17:24.626    28 418 kbps     00:17:24.626    109 120 bytes   335 404 bytes   00:18:56.218
3               0:27:36.819     0:12:28.415     23 121 kbps     38 140 kbps     00:27:39.491    34 208 kbps     00:27:37.197    30 686 kbps     00:27:37.197    120 543 bytes   277 421 bytes   00:27:40.450
4               0:40:05.234     0:07:21.525     19 601 kbps     29 383 kbps     00:40:28.801    28 218 kbps     00:44:54.900    27 896 kbps     00:45:30.853    102 193 bytes   291 885 bytes   00:40:40.938
5               0:47:26.760     0:00:48.588     19 946 kbps     27 212 kbps     00:47:26.760    21 557 kbps     00:47:52.661    21 366 kbps     00:47:53.412    103 988 bytes   249 434 bytes   00:47:26.802
6               0:48:15.349     0:00:01.461     29 kbps         30 kbps         00:48:15.350    0 kbps          00:00:00.000    0 kbps          00:00:00.000    316 bytes       321 bytes       00:48:15.684
Скриншты:

«Покойся с болью / Rest in Pain»

Прoдолжительность: 00:46:57
Описaние: Агент Купер пытается разгадать смысл странного сна, который он видел прошлой ночью. На похоронах Лоры Палмер эмоции над её могилой зашкаливают. Норма Дженнингс узнаёт, что её муж Хэнк, отбывающий срок за непреднамеренное убийство, может условно-досрочно выйти из тюрьмы, для чего необходимо в том числе и её согласие. Шериф Трумэн рассказывает агенту Куперу о тайном обществе под названием «Парни из читальни» и его миссии — бороться со злом, что таится в лесах вокруг Твин Пикса. В городок приезжает Мэдди Фергюсон — двоюродная сестра Лоры, крайне на неё похожая внешне.

BDInfo Report

DISC INFO:
Disc Title:     Episode.03-Rest.in.Pain
Disc Size:      10 738 289 404 bytes
Protection:     AACS
BD-Java:        No
BDInfo:         0.5.8
PLAYLIST REPORT:
Name:                   00000.MPLS
Length:                 0:46:57.564 (h:m:s.ms)
Size:                   10 738 249 728 bytes
Total Bitrate:          30.49 Mbps
VIDEO:
Codec                   Bitrate             Description
-----                   -------             -----------
MPEG-4 AVC Video        18937 kbps          1080p / 23.976 fps / 16:9 / High Profile 4.1
AUDIO:
Codec                           Language        Bitrate         Description
-----                           --------        -------         -----------
DTS-HD Master Audio             Russian         4833 kbps       7.1 / 48 kHz / 4833 kbps / 24-bit (DTS Core: 5.1 / 48 kHz / 1509 kbps / 24-bit)
DTS-HD Master Audio             English         4801 kbps       7.1 / 48 kHz / 4801 kbps / 24-bit (DTS Core: 5.1 / 48 kHz / 1509 kbps / 24-bit)
SUBTITLES:
Codec                           Language        Bitrate         Description
-----                           --------        -------         -----------
Presentation Graphics           Russian         30.018 kbps
Presentation Graphics           Russian         34.744 kbps
Presentation Graphics           English         35.492 kbps
FILES:
Name            Time In         Length          Size            Total Bitrate
----            -------         ------          ----            -------------
00000.M2TS      0:00:00.000     0:46:57.564     10 738 249 728  30 482
CHAPTERS:
Number          Time In         Length          Avg Video Rate  Max 1-Sec Rate  Max 1-Sec Time  Max 5-Sec Rate  Max 5-Sec Time  Max 10Sec Rate  Max 10Sec Time  Avg Frame Size  Max Frame Size  Max Frame Time
------          -------         ------          --------------  --------------  --------------  --------------  --------------  --------------  --------------  --------------  --------------  --------------
1               0:00:00.000     0:12:44.845     17 863 kbps     36 315 kbps     00:01:21.289    35 220 kbps     00:01:20.038    34 719 kbps     00:01:16.993    93 122 bytes    288 934 bytes   00:01:31.591
2               0:12:44.845     0:09:13.261     20 121 kbps     34 043 kbps     00:14:07.555    33 648 kbps     00:14:03.050    30 160 kbps     00:13:58.796    104 904 bytes   257 889 bytes   00:21:55.022
3               0:21:58.107     0:15:43.818     20 207 kbps     31 541 kbps     00:26:10.944    30 803 kbps     00:26:10.735    28 765 kbps     00:26:09.067    105 350 bytes   293 472 bytes   00:30:49.847
4               0:37:41.925     0:08:25.838     16 930 kbps     29 455 kbps     00:37:41.926    25 480 kbps     00:38:54.749    25 264 kbps     00:38:53.748    88 263 bytes    262 850 bytes   00:43:41.577
5               0:46:07.764     0:00:48.338     19 442 kbps     30 177 kbps     00:46:07.973    22 103 kbps     00:46:07.973    21 100 kbps     00:46:07.973    101 362 bytes   285 358 bytes   00:46:43.759
6               0:46:56.103     0:00:01.461     29 kbps         30 kbps         00:46:56.104    0 kbps          00:00:00.000    0 kbps          00:00:00.000    316 bytes       321 bytes       00:46:56.438
Скриншоты:

«Однорукий / The One-Armed Man»

Прoдолжительность: 00:47:00
Описaние: Как ни удивительно, Куперу и шерифу Трумэну удается установить местонахождение Однорукого, которого Купер видел во сне. Тем временем Джози Пэкард следит за Беном Хорном и Кэтрин Мартелл, которые плетут заговор вокруг лесопилки Пэкарда, и получает странное послание от Хэнка Дженнингса, который вскоре должен выйти на свободу.

BDInfo Report

DISC INFO:
Disc Title:     Episode.04-The.One-Armed.Man
Disc Size:      10 759 252 740 bytes
Protection:     AACS
BD-Java:        No
BDInfo:         0.5.8
PLAYLIST REPORT:
Name:                   00000.MPLS
Length:                 0:47:00.817 (h:m:s.ms)
Size:                   10 759 213 056 bytes
Total Bitrate:          30.51 Mbps
VIDEO:
Codec                   Bitrate             Description
-----                   -------             -----------
MPEG-4 AVC Video        18942 kbps          1080p / 23.976 fps / 16:9 / High Profile 4.1
AUDIO:
Codec                           Language        Bitrate         Description
-----                           --------        -------         -----------
DTS-HD Master Audio             Russian         4835 kbps       7.1 / 48 kHz / 4835 kbps / 24-bit (DTS Core: 5.1 / 48 kHz / 1509 kbps / 24-bit)
DTS-HD Master Audio             English         4805 kbps       7.1 / 48 kHz / 4805 kbps / 24-bit (DTS Core: 5.1 / 48 kHz / 1509 kbps / 24-bit)
SUBTITLES:
Codec                           Language        Bitrate         Description
-----                           --------        -------         -----------
Presentation Graphics           Russian         33.340 kbps
Presentation Graphics           Russian         39.022 kbps
Presentation Graphics           English         41.063 kbps
FILES:
Name            Time In         Length          Size            Total Bitrate
----            -------         ------          ----            -------------
00000.M2TS      0:00:00.000     0:47:00.817     10 759 213 056  30 506
CHAPTERS:
Number          Time In         Length          Avg Video Rate  Max 1-Sec Rate  Max 1-Sec Time  Max 5-Sec Rate  Max 5-Sec Time  Max 10Sec Rate  Max 10Sec Time  Avg Frame Size  Max Frame Size  Max Frame Time
------          -------         ------          --------------  --------------  --------------  --------------  --------------  --------------  --------------  --------------  --------------  --------------
1               0:00:00.000     0:12:15.817     20 230 kbps     30 978 kbps     00:01:21.164    30 079 kbps     00:01:20.330    29 624 kbps     00:01:17.077    105 463 bytes   357 123 bytes   00:01:36.095
2               0:12:15.817     0:09:05.796     19 792 kbps     29 556 kbps     00:12:16.485    25 313 kbps     00:14:06.804    24 188 kbps     00:14:01.799    103 188 bytes   359 276 bytes   00:21:21.530
3               0:21:21.613     0:11:57.174     19 508 kbps     29 237 kbps     00:33:15.243    24 223 kbps     00:21:21.613    22 364 kbps     00:30:49.806    101 705 bytes   317 853 bytes   00:21:23.532
4               0:33:18.787     0:12:52.480     16 895 kbps     29 259 kbps     00:33:19.080    26 700 kbps     00:41:18.684    23 424 kbps     00:38:09.078    88 083 bytes    262 017 bytes   00:46:08.182
5               0:46:11.268     0:00:48.090     14 859 kbps     27 985 kbps     00:46:11.310    17 410 kbps     00:46:11.310    16 062 kbps     00:46:11.393    77 469 bytes    257 955 bytes   00:46:12.060
6               0:46:59.358     0:00:01.459     29 kbps         30 kbps         00:46:59.358    0 kbps          00:00:00.000    0 kbps          00:00:00.000    316 bytes       321 bytes       00:46:59.691
Скриншоты:

«Сны Купера / Cooper's Dreams»

Прoдолжительность: 00:46:27
Описaние: Агент Купер, шэриф Трумэн, его помощник Хоук и доктор Хейворд решаются на поход вглубь леса, где у старого дома встречают Даму с поленом, которая пересказывает Куперу всё, что то «видело» в ночь убийства Лоры. В обнаруженной неподалёку хижине Жака Рено найдены очередные улики. Тем временем Одри Хорн продолжает прилагать все силы, чтобы помочь агенту Куперу, для чего устраивается на работу в универмаг своего отца, в то время как Донна Хейворд и Джеймс Харли развивают свою линию расследования смерти Лоры, посвятив в свои тайны Мэдди Фергюсон. После очередного жестокого избиения мужем Шелли Джонсон решает отомстить Лео.

BDInfo Report

DISC INFO:
Disc Title:     Episode.05-Cooper's.Dreams
Disc Size:      10 283 024 756 bytes
Protection:     AACS
BD-Java:        No
BDInfo:         0.5.8
PLAYLIST REPORT:
Name:                   00000.MPLS
Length:                 0:46:27.409 (h:m:s.ms)
Size:                   10 282 985 472 bytes
Total Bitrate:          29.51 Mbps
VIDEO:
Codec                   Bitrate             Description
-----                   -------             -----------
MPEG-4 AVC Video        18015 kbps          1080p / 23.976 fps / 16:9 / High Profile 4.1
AUDIO:
Codec                           Language        Bitrate         Description
-----                           --------        -------         -----------
DTS-HD Master Audio             Russian         4829 kbps       7.1 / 48 kHz / 4829 kbps / 24-bit (DTS Core: 5.1 / 48 kHz / 1509 kbps / 24-bit)
DTS-HD Master Audio             English         4800 kbps       7.1 / 48 kHz / 4800 kbps / 24-bit (DTS Core: 5.1 / 48 kHz / 1509 kbps / 24-bit)
SUBTITLES:
Codec                           Language        Bitrate         Description
-----                           --------        -------         -----------
Presentation Graphics           Russian         27.008 kbps
Presentation Graphics           Russian         30.196 kbps
Presentation Graphics           English         35.953 kbps
FILES:
Name            Time In         Length          Size            Total Bitrate
----            -------         ------          ----            -------------
00000.M2TS      0:00:00.000     0:46:27.409     10 282 985 472  29 505
CHAPTERS:
Number          Time In         Length          Avg Video Rate  Max 1-Sec Rate  Max 1-Sec Time  Max 5-Sec Rate  Max 5-Sec Time  Max 10Sec Rate  Max 10Sec Time  Avg Frame Size  Max Frame Size  Max Frame Time
------          -------         ------          --------------  --------------  --------------  --------------  --------------  --------------  --------------  --------------  --------------  --------------
1               0:00:00.000     0:14:17.229     18 280 kbps     39 897 kbps     00:14:14.520    28 646 kbps     00:01:20.080    28 182 kbps     00:01:17.035    95 300 bytes    631 885 bytes   00:14:15.145
2               0:14:17.229     0:08:58.580     18 123 kbps     30 304 kbps     00:23:12.432    23 605 kbps     00:19:08.939    22 002 kbps     00:14:43.257    94 484 bytes    375 048 bytes   00:23:13.767
3               0:23:15.810     0:11:03.913     17 808 kbps     41 458 kbps     00:34:16.053    24 980 kbps     00:27:25.727    23 942 kbps     00:28:30.834    92 842 bytes    635 445 bytes   00:34:16.679
4               0:34:19.724     0:11:17.719     18 114 kbps     28 686 kbps     00:42:29.672    28 135 kbps     00:42:29.672    28 048 kbps     00:42:29.797    94 438 bytes    206 216 bytes   00:34:20.516
5               0:45:37.443     0:00:48.505     14 393 kbps     32 123 kbps     00:46:22.905    20 232 kbps     00:46:18.901    16 940 kbps     00:46:13.896    75 039 bytes    540 966 bytes   00:46:23.614
6               0:46:25.948     0:00:01.460     29 kbps         30 kbps         00:46:25.949    0 kbps          00:00:00.000    0 kbps          00:00:00.000    316 bytes       321 bytes       00:46:26.283
Скриншоты:

«Время осмысления / Realization Time»

Прoдолжительность: 00:46:57
Описaние: Агент Купер вместе с Эдом Херли тайком наведываются в «Одноглазого Джека», чтобы попытаться найти Жака Рено — главного подозреваемого в убийстве. Без ведома Купера и также тайком Одри Хорн отваживается сыграть роль проститутки. Тем временем Мэдди Фергюсон, Донна Хейворд и Джеймс Харли придумывают план, как выманить из дома доктора Джекоби и выкрасть пленку, записанную Лорой перед смертью. Бобби Бриггс, всё ещё ревнуя Джеймса из-за романа с Лорой, намерен его подставить.

BDInfo Report

DISC INFO:
Disc Title:     Episode.06-Realization.Time
Disc Size:      10 073 028 852 bytes
Protection:     AACS
BD-Java:        No
BDInfo:         0.5.8
PLAYLIST REPORT:
Name:                   00000.MPLS
Length:                 0:46:57.856 (h:m:s.ms)
Size:                   10 072 989 696 bytes
Total Bitrate:          28.60 Mbps
VIDEO:
Codec                   Bitrate             Description
-----                   -------             -----------
MPEG-4 AVC Video        17381 kbps          1080p / 23.976 fps / 16:9 / High Profile 4.1
AUDIO:
Codec                           Language        Bitrate         Description
-----                           --------        -------         -----------
DTS-HD Master Audio             Russian         4715 kbps       7.1 / 48 kHz / 4715 kbps / 24-bit (DTS Core: 5.1 / 48 kHz / 1509 kbps / 24-bit)
DTS-HD Master Audio             English         4684 kbps       7.1 / 48 kHz / 4684 kbps / 24-bit (DTS Core: 5.1 / 48 kHz / 1509 kbps / 24-bit)
SUBTITLES:
Codec                           Language        Bitrate         Description
-----                           --------        -------         -----------
Presentation Graphics           Russian         23.413 kbps
Presentation Graphics           Russian         27.174 kbps
Presentation Graphics           English         30.320 kbps
FILES:
Name            Time In         Length          Size            Total Bitrate
----            -------         ------          ----            -------------
00000.M2TS      0:00:00.000     0:46:57.856     10 072 989 696  28 590
CHAPTERS:
Number          Time In         Length          Avg Video Rate  Max 1-Sec Rate  Max 1-Sec Time  Max 5-Sec Rate  Max 5-Sec Time  Max 10Sec Rate  Max 10Sec Time  Avg Frame Size  Max Frame Size  Max Frame Time
------          -------         ------          --------------  --------------  --------------  --------------  --------------  --------------  --------------  --------------  --------------  --------------
1               0:00:00.000     0:12:37.505     18 760 kbps     34 087 kbps     00:01:30.673    29 016 kbps     00:01:19.913    28 575 kbps     00:01:16.951    97 802 bytes    314 456 bytes   00:12:34.420
2               0:12:37.505     0:11:29.230     18 037 kbps     30 694 kbps     00:12:37.882    24 005 kbps     00:17:28.881    23 330 kbps     00:17:31.675    94 039 bytes    290 439 bytes   00:12:38.007
3               0:24:06.735     0:08:32.721     16 889 kbps     43 407 kbps     00:32:36.746    24 124 kbps     00:32:32.742    21 306 kbps     00:29:36.733    88 052 bytes    581 696 bytes   00:32:37.372
4               0:32:39.457     0:13:28.473     16 029 kbps     39 080 kbps     00:46:01.216    23 051 kbps     00:41:12.761    22 327 kbps     00:36:41.824    83 567 bytes    537 952 bytes   00:46:01.884
5               0:46:07.930     0:00:48.465     15 009 kbps     32 182 kbps     00:46:53.352    20 291 kbps     00:46:49.348    17 252 kbps     00:46:44.343    78 250 bytes    540 966 bytes   00:46:54.061
6               0:46:56.395     0:00:01.460     29 kbps         30 kbps         00:46:56.396    0 kbps          00:00:00.000    0 kbps          00:00:00.000    316 bytes       321 bytes       00:46:56.730
Скриншоты:

«Последний вечер / The Last Evening»

Прoдолжительность: 00:46:48
Описaние: По заказу Бена Хорна Лео Джонсон приступает к осуществлению плана, как не только сжечь лесопилку Пэкарда, но и одним махом избавиться от Кэтрин Мартелл, от своей жены Шелли и её любовника Бобби Бриггса. События принимают крутой поворот, когда агент Купер успешно выманивает Жака Рено за канадскую границу, и причастность того к смерти Лоры становится очевидной. Надин Харли решает покончить с собой, наглотавшись таблеток, а отец Лоры Лиланд собственноручно вершит правосудие. По возвращении в гостиничный номер отеля «Грейт Нотерн» агента Купера ждёт очень неприятный сюрприз.

BDInfo Report

DISC INFO:
Disc Title:     Episode.07-The.Last.Evening
Disc Size:      10 637 134 836 bytes
Protection:     AACS
BD-Java:        No
BDInfo:         0.5.8
PLAYLIST REPORT:
Name:                   00000.MPLS
Length:                 0:46:48.222 (h:m:s.ms)
Size:                   10 637 094 912 bytes
Total Bitrate:          30.30 Mbps
VIDEO:
Codec                   Bitrate             Description
-----                   -------             -----------
MPEG-4 AVC Video        18902 kbps          1080p / 23.976 fps / 16:9 / High Profile 4.1
AUDIO:
Codec                           Language        Bitrate         Description
-----                           --------        -------         -----------
DTS-HD Master Audio             Russian         4770 kbps       7.1 / 48 kHz / 4770 kbps / 24-bit (DTS Core: 5.1 / 48 kHz / 1509 kbps / 24-bit)
DTS-HD Master Audio             English         4743 kbps       7.1 / 48 kHz / 4743 kbps / 24-bit (DTS Core: 5.1 / 48 kHz / 1509 kbps / 24-bit)
SUBTITLES:
Codec                           Language        Bitrate         Description
-----                           --------        -------         -----------
Presentation Graphics           Russian         22.810 kbps
Presentation Graphics           Russian         27.057 kbps
Presentation Graphics           English         29.221 kbps
FILES:
Name            Time In         Length          Size            Total Bitrate
----            -------         ------          ----            -------------
00000.M2TS      0:00:00.000     0:46:48.222     10 637 094 912  30 295
CHAPTERS:
Number          Time In         Length          Avg Video Rate  Max 1-Sec Rate  Max 1-Sec Time  Max 5-Sec Rate  Max 5-Sec Time  Max 10Sec Rate  Max 10Sec Time  Avg Frame Size  Max Frame Size  Max Frame Time
------          -------         ------          --------------  --------------  --------------  --------------  --------------  --------------  --------------  --------------  --------------  --------------
1               0:00:00.000     0:11:58.716     19 857 kbps     35 356 kbps     00:01:21.164    34 440 kbps     00:01:20.038    33 982 kbps     00:01:17.327    103 519 bytes   286 726 bytes   00:01:32.634
2               0:11:58.716     0:11:05.456     18 232 kbps     24 826 kbps     00:11:59.802    22 972 kbps     00:18:28.357    22 120 kbps     00:12:46.765    95 053 bytes    207 653 bytes   00:14:51.140
3               0:23:04.172     0:11:30.940     19 500 kbps     31 792 kbps     00:23:04.549    24 771 kbps     00:27:13.048    23 600 kbps     00:27:08.251    101 663 bytes   255 646 bytes   00:23:04.758
4               0:34:35.113     0:11:23.433     18 051 kbps     35 558 kbps     00:40:13.035    32 244 kbps     00:40:12.409    27 070 kbps     00:40:07.238    94 110 bytes    263 248 bytes   00:40:39.311
5               0:45:58.546     0:00:48.215     18 260 kbps     33 117 kbps     00:46:43.717    22 025 kbps     00:46:39.671    19 718 kbps     00:46:34.708    95 200 bytes    540 966 bytes   00:46:44.426
6               0:46:46.761     0:00:01.460     29 kbps         30 kbps         00:46:46.762    0 kbps          00:00:00.000    0 kbps          00:00:00.000    316 bytes       321 bytes       00:46:47.095
Скриншоты:

Скриншоты:


- Цитата: Дорожка №1 получена наложением чистого голоса на центральный канал английского DTS-HD.
За работу над всеми субтитрами спасибо Lesnick. Для тех, кто будет выбирать между первым и вторым вариантом - ценность субтитров от Оборотня Боба весьма преувеличена.
Отдельная благодарность Pro_Rock_'у за умеренное употребление уфимской водички )-
[Профиль] [ЛС]
Кто просматривает тему:

Показать сообщения:    

Текущее время: Сегодня 06:06

Часовой пояс: GMT



Вы не можете начинать темы
Вы не можете отвечать на сообщения
Вы не можете редактировать свои сообщения
Вы не можете удалять свои сообщения
Вы не можете голосовать в опросах
Вы не можете прикреплять файлы к сообщениям
Вы не можете скачивать файлы