Тварь / Alien Lockdown (2004) WEB-DL 1080p | P

 
Автор Сообщение

BOSS ®

Пол:

Стаж: 3 года 9 месяцев

Сообщений: 11149

Откуда: ODESSA



Награды: 22 (Подробнее)

Top Keeper 4 (Количество: 1) Top Keeper 1 (Количество: 1) Top Seeder 2 (Количество: 1)
Торрент-статистика

Создавать темы 07-Июл-2018 05:07

[Цитировать]

Информация о фильме
Название: Тварь
Оригинальное название: Alien Lockdown
Год выхода: 2004
Жанр: Фантастика, боевик, триллер
Режиссер: Тим Кокс
В ролях: Джеймс Маршалл, Мишель Го, Джон Сэвэдж, Мартин Коув, Станислав Дмитров, Нэйтан Перез, Т.М. Ван Остранд, Атанас Сребрев, Дэвид Каллауэй, Станимир Стаматов, Райчо Василев, Крассимир Манов, Бойко Боянов, Добрин Досев, Джуд Ида, Владимир Николов...
О фильме:
Доктор Аллан Вудман создает из доисторического существа новое супероружие — чудовище, питающееся человеческой кровью. Неожиданно тварь вырывается на свободу. По кровавому следу монстра идет отряд специального назначения во главе с Ритой Тэлон.

Страна: США
Студия: Active Entertainment, Millennium Films, Plinyminor
Продолжительность: 01:32:00
Перевод: Профессиональный многоголосый | Инис
Файл
Кодек: x.264
Качество: WEB-DL 1080p | AMZN
Видео: MPEG-4 AVC, 1920x1080, 10.5 Mбит/с, 23.976 кадр/с
Звук:
Аудио #1: Русский ( АС3, 6ch, 384 Кбит/с, 48.0 KHz) Профессиональный (многоголосый, закадровый) Инис / Союз видео (By alenavova)
Аудио #2: Английский ( АС3, 6ch, 384 Кбит/с, 48.0 KHz)
Субтитры: английские

MediaInfo

Источник: Alien.Lockdown.2004.1080p.AMZN.WEB-DL.DDP2.0.H.264-NTG
General
Unique ID : 246284232882234848650929432270147075246 (0xB9489E2E4A4F8AEE980A1D20A0CEBCAE)
Complete name : Alien.Lockdown.2004.AMZN.WEB-DL.1080p.mkv
Format : Matroska
Format version : Version 4 / Version 2
File size : 7.22 GiB
Duration : 1 h 32 min
Overall bit rate : 11.2 Mb/s
Encoded date : UTC 2018-07-06 18:03:58
Writing application : mkvmerge v7.1.0 ('Good Love') 64bit built on Jul 27 2014 13:06:55
Writing library : libebml v1.3.0 + libmatroska v1.4.1
Video
ID : 1
Format : AVC
Format/Info : Advanced Video Codec
Format profile : High@L4
Format settings : CABAC / 4 Ref Frames
Format settings, CABAC : Yes
Format settings, ReFrames : 4 frames
Codec ID : V_MPEG4/ISO/AVC
Duration : 1 h 32 min
Bit rate : 10.5 Mb/s
Width : 1 920 pixels
Height : 1 080 pixels
Display aspect ratio : 16:9
Frame rate mode : Constant
Frame rate : 23.976 (24000/1001) FPS
Color space : YUV
Chroma subsampling : 4:2:0
Bit depth : 8 bits
Scan type : Progressive
Bits/(Pixel*Frame) : 0.210
Stream size : 6.73 GiB (93%)
Language : English
Default : Yes
Forced : No
Color range : Limited
Color primaries : BT.709
Transfer characteristics : BT.709
Matrix coefficients : BT.709
Audio #1
ID : 2
Format : AC-3
Format/Info : Audio Coding 3
Codec ID : A_AC3
Duration : 1 h 31 min
Bit rate mode : Constant
Bit rate : 384 kb/s
Channel(s) : 6 channels
Channel positions : Front: L C R, Side: L R, LFE
Sampling rate : 48.0 kHz
Frame rate : 31.250 FPS (1536 SPF)
Bit depth : 16 bits
Compression mode : Lossy
Stream size : 252 MiB (3%)
Language : Russian
Service kind : Complete Main
Default : Yes
Forced : No
Audio #2
ID : 3
Format : AC-3
Format/Info : Audio Coding 3
Codec ID : A_AC3
Duration : 1 h 32 min
Bit rate mode : Constant
Bit rate : 384 kb/s
Channel(s) : 6 channels
Channel positions : Front: L C R, Side: L R, LFE
Sampling rate : 48.0 kHz
Frame rate : 31.250 FPS (1536 SPF)
Bit depth : 16 bits
Compression mode : Lossy
Stream size : 253 MiB (3%)
Language : English
Service kind : Complete Main
Default : No
Forced : No
Text
ID : 4
Format : UTF-8
Codec ID : S_TEXT/UTF8
Codec ID/Info : UTF-8 Plain Text
Duration : 1 h 26 min
Bit rate : 43 b/s
Count of elements : 908
Stream size : 27.6 KiB (0%)
Title : SDH
Language : English
Default : No
Forced : No
Menu
00:00:00.000 : en:00:00:00.000
00:07:00.712 : en:00:07:00.712
00:11:11.337 : en:00:11:11.337
00:17:56.701 : en:00:17:56.701
00:21:42.676 : en:00:21:42.676
00:26:06.732 : en:00:26:06.732
00:30:21.445 : en:00:30:21.445
00:33:51.488 : en:00:33:51.488
00:38:01.488 : en:00:38:01.488
00:40:59.749 : en:00:40:59.749
00:44:07.562 : en:00:44:07.562
00:49:22.710 : en:00:49:22.710
00:51:54.403 : en:00:51:54.403
00:56:39.938 : en:00:56:39.938
01:00:44.057 : en:01:00:44.057
01:05:12.826 : en:01:05:12.826
01:08:46.039 : en:01:08:46.039
01:14:24.085 : en:01:14:24.085
01:18:42.384 : en:01:18:42.384
01:26:39.403 : en:01:26:39.403

Скриншоты

[Профиль] [ЛС]
Показать сообщения:    

Текущее время: Сегодня 22:07

Часовой пояс: GMT



Вы не можете начинать темы
Вы не можете отвечать на сообщения
Вы не можете редактировать свои сообщения
Вы не можете удалять свои сообщения
Вы не можете голосовать в опросах
Вы не можете прикреплять файлы к сообщениям
Вы не можете скачивать файлы