Твари из бездны / Troglodyte / The Sea Beast (Пол Зиллер / Paul Ziller) [2008, США, ужасы, фантастика, триллер, WEBRip 720p] 2х MVO + Sub Rus, Eng + Original Eng

 
Автор Сообщение

TorrentFilm ®

Пол:

Стаж: 2 года

Сообщений: 7741



Награды: Нет

Торрент-статистика

Создавать темы 18-Фев-2016 00:08

[Цитировать]

Твари из бездны / Troglodyte / The Sea Beast
Страна: США
Студия: Cinetel Films, Insight Film and Video Production Inc., NBC Universal Television, The Sci-Fi Channel
Жанр: Ужасы, фантастика, триллер
Год выпуска: 2008
Продолжительность: 01:27:24
Перевод 1: Профессиональный (многоголосый закадровый) Лицензия R5 от "Lizard Cinema Trade"
Перевод 2: Профессиональный (многоголосый закадровый) с т/к ТВ-3
Cубтитры: Русские, английские
Оригинальная аудиодорожка: Английский
Режиссер: Пол Зиллер / Paul Ziller
В ролях: Корин Немек, Мириам МакДональд, Дэниэл Уислер, Камилль Салливан, Гвинит Уолш, Брент Стейт, Гэри Хадсон, Кристи Лэйн, Брэндон Джей МакЛарен, Роман Подхора, Брок Джонсон, Брэд Келли, Лиа Коффман, Дуглас Чэпман, Лиа Ковач
Описание: Ужас, сокрытый в тихих водах мирной рыбацкой деревушки сеет панику среди рыбаков. Пресытившись морской фауной, безжалостные морские троглодиты выходят на поверхность в поисках новой пищи. Теперь их интересует человеческая плоть. Вступить в битву со смертоносными чудовищами решается капитан рыбацкого судна Уилл МакКенна…
Дополнительная информация:
Автор релиза - ylnian
Источник видео - Sea.Beast.2008.720p.HULU.WEBRip.AAC2.0.H.264-NTb
За многоголоску с ТВ-3 спасибо Jabberjaw
За основу для чаптеров взяты главы с DVD5 R5


Сэмпл: https://yadi.sk/i/sKhkPd4Aovt9P
Качество видео: WEBRip 720p
Формат видео: MKV
Видео: H.264, 1280x1080, 23.976 fps, 2991 kbps
Аудио 1: Русский AC3, 48000 Гц, 6ch, 384 kbps - MVO (R5)
Аудио 2: Русский AC3, 48000 Гц, 2ch, 192 kbps - MVO (ТВ-3)
Аудио 3: Английский AC3, 48000 Гц, 2ch, 192 kbps
Формат субтитров: softsub (SRT)

MediaInfo

Общее
Уникальный идентификатор : 200621196090407749720796361318568645461 (0x96EE3CA5ABA0903788D9A9E90C855355)
Полное имя : E:\Troglodyte.2008.WEBRip.720p-ylnian.mkv
Формат : Matroska
Версия формата : Version 4 / Version 2
Размер файла : 2,34 Гбайт
Продолжительность : 1 ч. 27 м.
Общий поток : 3835 Кбит/сек
Название фильма : Troglodyte.2008.WEBRip.720p-ylnian
Дата кодирования : UTC 2016-02-16 13:45:48
Программа кодирования : mkvmerge v8.3.0 ('Over the Horizon') 64bit
Библиотека кодирования : libebml v1.3.1 + libmatroska v1.4.2
Видео
Идентификатор : 1
Формат : AVC
Формат/Информация : Advanced Video Codec
Профиль формата : High@L3.1
Параметр CABAC формата : Да
Параметр ReFrames формата : 5 кадров
Идентификатор кодека : V_MPEG4/ISO/AVC
Продолжительность : 1 ч. 27 м.
Битрейт : 2991 Кбит/сек
Ширина : 1280 пикселей
Высота : 720 пикселей
Соотношение сторон : 16:9
Режим частоты кадров : Постоянный
Частота кадров : 23,976 (24000/1001) кадра/сек
Цветовое пространство : YUV
Субдискретизация насыщенности : 4:2:0
Битовая глубина : 8 бит
Тип развёртки : Прогрессивная
Бит/(Пиксели*Кадры) : 0.135
Размер потока : 1,83 Гбайт (78%)
Заголовок : Sea.Beast.2008.720p.HULU.WEBRip.AAC2.0.H.264-NTb
Язык : English
Default : Да
Forced : Да
Аудио #1
Идентификатор : 2
Формат : AC-3
Формат/Информация : Audio Coding 3
Расширение режима : CM (complete main)
Параметр Endianness формата : Big
Идентификатор кодека : A_AC3
Продолжительность : 1 ч. 27 м.
Вид битрейта : Постоянный
Битрейт : 384 Кбит/сек
Каналы : 6 каналов
Расположение каналов : Front: L C R, Side: L R, LFE
Частота : 48,0 КГц
Частота кадров : 31,250 кадров/сек (1536 spf)
Метод сжатия : С потерями
Размер потока : 240 Мбайт (10%)
Заголовок : MVO (R5) (AC3 5.1 384 kbps)
Язык : Russian
Default : Да
Forced : Да
Аудио #2
Идентификатор : 3
Формат : AC-3
Формат/Информация : Audio Coding 3
Расширение режима : CM (complete main)
Параметр Endianness формата : Big
Идентификатор кодека : A_AC3
Продолжительность : 1 ч. 27 м.
Вид битрейта : Постоянный
Битрейт : 192 Кбит/сек
Каналы : 2 канала
Расположение каналов : Front: L R
Частота : 48,0 КГц
Частота кадров : 31,250 кадров/сек (1536 spf)
Метод сжатия : С потерями
Размер потока : 120 Мбайт (5%)
Заголовок : MVO (TV3) (AC3 2.0 192 kbps)
Язык : Russian
Default : Нет
Forced : Нет
Аудио #3
Идентификатор : 4
Формат : AC-3
Формат/Информация : Audio Coding 3
Расширение режима : CM (complete main)
Параметр Endianness формата : Big
Идентификатор кодека : A_AC3
Продолжительность : 1 ч. 27 м.
Вид битрейта : Постоянный
Битрейт : 192 Кбит/сек
Каналы : 2 канала
Расположение каналов : Front: L R
Частота : 48,0 КГц
Частота кадров : 31,250 кадров/сек (1536 spf)
Метод сжатия : С потерями
Размер потока : 120 Мбайт (5%)
Заголовок : AC3 2.0 192 kbps
Язык : English
Default : Нет
Forced : Нет
Текст #1
Идентификатор : 5
Формат : UTF-8
Идентификатор кодека : S_TEXT/UTF8
Идентификатор кодека/Информация : UTF-8 Plain Text
Язык : Russian
Default : Нет
Forced : Нет
Текст #2
Идентификатор : 6
Формат : UTF-8
Идентификатор кодека : S_TEXT/UTF8
Идентификатор кодека/Информация : UTF-8 Plain Text
Язык : English
Default : Нет
Forced : Нет
Меню
00:00:00.000 : en:Chapter 1
00:07:44.297 : en:Chapter 2
00:14:28.242 : en:Chapter 3
00:22:37.898 : en:Chapter 4
00:28:04.599 : en:Chapter 5
00:37:48.182 : en:Chapter 6
00:42:02.269 : en:Chapter 7
00:49:40.143 : en:Chapter 8
00:59:00.078 : en:Chapter 9
01:06:44.625 : en:Chapter 10
01:13:22.898 : en:Chapter 11
01:24:11.713 : en:Chapter 12

Скриншот c названием фильма

Скриншоты

[Профиль] [ЛС]

Создавать темы 12-Июн-2016 08:50 (спустя 3 месяца 23 дня)

Топик был перенесен из форума Фильмы 2011 года в форум Фильмы 2006-2008 года
Russian Mafia
 
Показать сообщения:    

Текущее время: Сегодня 14:30

Часовой пояс: GMT



Вы не можете начинать темы
Вы не можете отвечать на сообщения
Вы не можете редактировать свои сообщения
Вы не можете удалять свои сообщения
Вы не можете голосовать в опросах
Вы не можете прикреплять файлы к сообщениям
Вы не можете скачивать файлы