Твари из бездны / Troglodyte / The Sea Beast (Пол Зиллер / Paul Ziller) [2008, США, ужасы, фантастика, триллер, WEBRip] 2х MVO + Sub Rus, Eng + Original Eng

 
Автор Сообщение

TorrentFilm ®

Пол:

Стаж: 2 года

Сообщений: 7741



Награды: Нет

Торрент-статистика

Создавать темы 18-Фев-2016 00:08

[Цитировать]

Твари из бездны / Troglodyte / The Sea Beast
Страна: США
Студия: Cinetel Films, Insight Film and Video Production Inc., NBC Universal Television, The Sci-Fi Channel
Жанр: Ужасы, фантастика, триллер
Год выпуска: 2008
Продолжительность: 01:27:24
Перевод 1: Профессиональный (многоголосый закадровый) Лицензия R5 от "Lizard Cinema Trade"
Перевод 2: Профессиональный (многоголосый закадровый) с т/к ТВ-3
Cубтитры: Русские, английские (внешние)
Оригинальная аудиодорожка: Английский
Режиссер: Пол Зиллер / Paul Ziller
В ролях: Корин Немек, Мириам МакДональд, Дэниэл Уислер, Камилль Салливан, Гвинит Уолш, Брент Стейт, Гэри Хадсон, Кристи Лэйн, Брэндон Джей МакЛарен, Роман Подхора, Брок Джонсон, Брэд Келли, Лиа Коффман, Дуглас Чэпман, Лиа Ковач
Описание: Ужас, сокрытый в тихих водах мирной рыбацкой деревушки сеет панику среди рыбаков. Пресытившись морской фауной, безжалостные морские троглодиты выходят на поверхность в поисках новой пищи. Теперь их интересует человеческая плоть. Вступить в битву со смертоносными чудовищами решается капитан рыбацкого судна Уилл МакКенна…
Дополнительная информация:
Автор релиза - ylnian
Источник для рипа - Sea.Beast.2008.720p.HULU.WEBRip.AAC2.0.H.264-NTb
За многоголоску с ТВ-3 спасибо Jabberjaw


Сэмпл: https://yadi.sk/i/jBULhRcjossa2
Качество видео: WEBRip
Формат видео: AVI
Видео: XviD, 720x400 (16:9), 23.976 fps, 1607 kbps, 0.233 bit/pixel
Аудио 1: Русский AC3, 48000 Гц, 6ch, 384 kbps - MVO (R5)
Аудио 2: Русский AC3, 48000 Гц, 2ch, 192 kbps - MVO (ТВ-3)
Аудио 3: Английский AC3, 48000 Гц, 2ch, 192 kbps
Формат субтитров: softsub (SRT)

MediaInfo

Общее
Полное имя : E:\Troglodyte.2008.WEB-DLRip-ylnian\Troglodyte.2008.WEB-DLRip-ylnian.avi
Формат : AVI
Формат/Информация : Audio Video Interleave
Размер файла : 1,46 Гбайт
Продолжительность : 1 ч. 27 м.
Общий поток : 2393 Кбит/сек
Программа кодирования : VirtualDubMod 1.5.10.2 (build 2540/release)
Библиотека кодирования : VirtualDubMod build 2540/release
Видео
Идентификатор : 0
Формат : MPEG-4 Visual
Профиль формата : Advanced Simple@L5
Параметр BVOP формата : 1
Параметр QPel формата : Нет
Параметр GMC формата : Без точки перехода
Параметр матрицы формата : Default (MPEG)
Идентификатор кодека : XVID
Идентификатор кодека/Подсказка : XviD
Продолжительность : 1 ч. 27 м.
Битрейт : 1607 Кбит/сек
Ширина : 720 пикселей
Высота : 400 пикселей
Соотношение сторон : 16:9
Частота кадров : 23,976 (24000/1001) кадра/сек
Цветовое пространство : YUV
Субдискретизация насыщенности : 4:2:0
Битовая глубина : 8 бит
Тип развёртки : Прогрессивная
Метод сжатия : С потерями
Бит/(Пиксели*Кадры) : 0.233
Размер потока : 1005 Мбайт (67%)
Библиотека кодирования : XviD 67
Аудио #1
Идентификатор : 1
Формат : AC-3
Формат/Информация : Audio Coding 3
Расширение режима : CM (complete main)
Параметр Endianness формата : Big
Идентификатор кодека : 2000
Продолжительность : 1 ч. 27 м.
Вид битрейта : Постоянный
Битрейт : 384 Кбит/сек
Каналы : 6 каналов
Расположение каналов : Front: L C R, Side: L R, LFE
Частота : 48,0 КГц
Частота кадров : 31,250 кадров/сек (1536 spf)
Метод сжатия : С потерями
Размер потока : 240 Мбайт (16%)
Выравнивание : Разделение по промежуткам
Продолжительность промежутка : 42 мс. (1,00 видеокадр)
Время предзагрузки промежутка : 500 мс.
Аудио #2
Идентификатор : 2
Формат : AC-3
Формат/Информация : Audio Coding 3
Расширение режима : CM (complete main)
Параметр Endianness формата : Big
Идентификатор кодека : 2000
Продолжительность : 1 ч. 27 м.
Вид битрейта : Постоянный
Битрейт : 192 Кбит/сек
Каналы : 2 канала
Расположение каналов : Front: L R
Частота : 48,0 КГц
Частота кадров : 31,250 кадров/сек (1536 spf)
Метод сжатия : С потерями
Размер потока : 120 Мбайт (8%)
Выравнивание : Разделение по промежуткам
Продолжительность промежутка : 42 мс. (1,00 видеокадр)
Время предзагрузки промежутка : 500 мс.
Аудио #3
Идентификатор : 3
Формат : AC-3
Формат/Информация : Audio Coding 3
Расширение режима : CM (complete main)
Параметр Endianness формата : Big
Идентификатор кодека : 2000
Продолжительность : 1 ч. 27 м.
Вид битрейта : Постоянный
Битрейт : 192 Кбит/сек
Каналы : 2 канала
Расположение каналов : Front: L R
Частота : 48,0 КГц
Частота кадров : 31,250 кадров/сек (1536 spf)
Метод сжатия : С потерями
Размер потока : 120 Мбайт (8%)
Выравнивание : Разделение по промежуткам
Продолжительность промежутка : 42 мс. (1,00 видеокадр)
Время предзагрузки промежутка : 500 мс.
Общее
Полное имя : E:\Troglodyte.2008.WEB-DLRip-ylnian\Troglodyte.2008.WEB-DLRip-ylnian_eng.srt
Формат : SubRip
Размер файла : 75,9 Кбайт
Текст
Формат : SubRip
Метод сжатия : Без потерь
Общее
Полное имя : E:\Troglodyte.2008.WEB-DLRip-ylnian\Troglodyte.2008.WEB-DLRip-ylnian_rus.srt
Формат : SubRip
Размер файла : 73,6 Кбайт
Текст
Формат : SubRip
Метод сжатия : Без потерь

Сравнение с DVDRip

Сравнение с DVDRip от ELEKTRI4KA - http://screenshotcomparison.com/comparison/161958/

Скриншот c названием фильма

Скриншоты

[Профиль] [ЛС]

Создавать темы 12-Июн-2016 08:50 (спустя 3 месяца 23 дня)

Топик был перенесен из форума Фильмы 2011 года в форум Фильмы 2006-2008 года
Russian Mafia
 
Показать сообщения:    

Текущее время: Сегодня 04:28

Часовой пояс: GMT



Вы не можете начинать темы
Вы не можете отвечать на сообщения
Вы не можете редактировать свои сообщения
Вы не можете удалять свои сообщения
Вы не можете голосовать в опросах
Вы не можете прикреплять файлы к сообщениям
Вы не можете скачивать файлы