Та женщина / O kadin (Корхан Бозкирт / Korhan Bozkurt) [2007, Турция, драма, музыкальный, HDRip] Sub Rus

 
Автор Сообщение

painkiller ®

Стаж: 2 года 3 месяца

Сообщений: 582



Награды: Нет

Торрент-статистика

Создавать темы 16-Авг-2014 01:28

[Цитировать]

Та женщина / O kadin
Страна: Турция
Жанр: драма, музыкальный
Год выпуска: 2007
Продолжительность: 01:29:29
Перевод: Субтитры (перевод Эльвина Аскерова, субтитры и адаптация песен Фея)
Cубтитры: русские
Оригинальная аудиодорожка: турецкий
Режиссер: Корхан Бозкирт / Korhan Bozkurt
В ролях: Селин Демиратар, Тарду Флордун, Бурак Хаккы, Шебнем Донмез и др.
Описание: Йешим - девушка, построившая карьеру. Она твердо стоит на ногах, работая в модельном бизнесе. Ее личная жизнь тоже почти состоялась. Еще немного и она станет женой Бюлента, с которым она долгое время знакома. Но всё не так просто в сфере чувств. Встретив музыканта Окана, Йешим поддается слабости и влюбляется в него. Казалось бы, тема банальна, но смотря как преподать эту историю. Любовь, ревность, смятение - чувства переданные через музыку. Ничто так не передает атмосферу, как песни Сезен Аксу. Это полное погружение в мир эмоций и прикосновений... В такой сложный, но в тоже время нежный и трепетный мир любви...
Сэмпл: http://multi-up.com/992538
Качество видео: HDRip
Формат видео: AVI
Видео: 704x384 (1.83:1), 25 fps, XviD MPEG-4 ~1707 kbps avg, 0.25 bit/pixel
Аудио: 48 kHz, MPEG Layer 3, 2 ch, ~128.00 kbps avg
Формат субтитров: hardsub (неотключаемые)

MediaInfo

Общее
Формат : AVI
Формат/Информация : Audio Video Interleave
Профиль формата : OpenDML
Размер файла : 1,15 Гбайт
Продолжительность : 1 ч. 29 м.
Общий поток : 1842 Кбит/сек
Программа кодирования : Lavf52.39.1
Видео
Идентификатор : 0
Формат : xvid
Идентификатор кодека : xvid
Продолжительность : 1 ч. 29 м.
Битрейт : 1698 Кбит/сек
Ширина : 704 пикселя
Высота : 384 пикселя
Соотношение сторон : 1,85:1
Частота кадров : 25,000 кадров/сек
Бит/(Пиксели*Кадры) : 0.251
Размер потока : 1,06 Гбайт (92%)
Аудио
Идентификатор : 1
Формат : MPEG Audio
Версия формата : Version 1
Профиль формата : Layer 3
Режим : Joint stereo
Расширение режима : MS Stereo
Идентификатор кодека : 55
Идентификатор кодека/Подсказка : MP3
Продолжительность : 1 ч. 29 м.
Вид битрейта : Постоянный
Битрейт : 128 Кбит/сек
Каналы : 2 канала
Частота : 48,0 КГц
Метод сжатия : С потерями
Размер потока : 81,9 Мбайт (7%)
Выравнивание : Соединение по промежуткам
Продолжительность промежутка : 24 мс. (0,60 видеокадр)
Время предзагрузки промежутка : 24 мс.
Библиотека кодирования : LAME3.96.1
[Профиль] [ЛС]

Создавать темы 06-Авг-2015 23:09 (спустя 11 месяцев 21 день)

Топик был перенесен из форума Фильмы до 2014 года в форум Фильмы до 2012 года
sergej644
 
Кто просматривает тему:

Показать сообщения:    

Текущее время: Сегодня 10:48

Часовой пояс: GMT



Вы не можете начинать темы
Вы не можете отвечать на сообщения
Вы не можете редактировать свои сообщения
Вы не можете удалять свои сообщения
Вы не можете голосовать в опросах
Вы не можете прикреплять файлы к сообщениям
Вы не можете скачивать файлы