Та еще парочка / Long Shot (2019) BDRip | iTunes

 
Author Message

BOSS ®

Gender:

Longevity: 5 years 5 months

Posts: 14330

Location: ODESSA



: 22 ()

Mega Seeder 4 (1) Top Seeder 3 (1) Top Seeder 4 (1)
Торрент-статистика

Post 27-Jul-2019 15:07

[Quote]

Информация о фильме
Название: Та еще парочка
Оригинальное название: Long Shot
Год выхода: 2019
Жанр: Мелодрама, комедия
Страна: США
Перевод: Дублированный | iTunes
Продолжительность: 02:04:56
Режиссер: Джонатан Левин
В ролях: Шарлиз Терон, Сет Роген, Джун Рафаэль, О’Ши Джексон мл., Рави Патель, Боб Оденкёрк, Энди Серкис, Рэндолл Парк, Тристан Д. Лалла, Александр Скарсгард и др.
О фильме: Шарлотта Филд — одна из самых влиятельных бизнесвумен планеты. Целеустремленная, умная, обворожительная, она хороша в любом деле, за которое берется. Фред Фларски — талантливый, но эксцентричный и склонный к саморазрушению журналист. У них нет ничего общего кроме того, что она — его первая любовь. И вот спустя годы они случайно встречаются вновь. Фред очаровывает Шарлотту, и она неожиданно для всех (и для самой себя) нанимает его в качестве спичрайтера для своей предвыборной кампании… Их воссоединение запускает цепочку головокружительно нелепых и опасных событий мирового масштаба.

Файл
Формат: AVI
Качество: BDRip | Long.Shot.2019.1080p.BluRay.REMUX.AVC.DTS-HD.MA.TrueHD.7.1.Atmos-FGT
Видео: Xvid 73, 720x304, ~1272 kbps, 23,976 fps
Звук: русский, AC3, 5.1 ch, 48 kHz, 384 kbps | iTunes
Субтитры: русские (форс. вшитые)

MI

Общее
Полное имя : F:TorrentLongShotBDRip.avi
Формат : AVI
Формат/Информация : Audio Video Interleave
Профиль формата : OpenDML
Размер файла : 1,46 Гбайт
Продолжительность : 2 ч. 4 м.
Общий поток : 1668 Кбит/сек
Программа кодирования : XviD4PSP 6.0 / 53.6.0
Видео
Идентификатор : 0
Формат : MPEG-4 Visual
Профиль формата : Advanced Simple@L5
Настройки формата : BVOP1 / Custom Matrix
Параметр BVOP формата : 1
Параметр QPel формата : Нет
Параметр GMC формата : Без точки перехода
Параметр матрицы формата : Выборочная
Идентификатор кодека : XVID
Идентификатор кодека/Подсказка : XviD
Продолжительность : 2 ч. 4 м.
Битрейт : 1272 Кбит/сек
Ширина : 720 пикселей
Высота : 304 пикселя
Соотношение сторон : 2,35:1
Частота кадров : 23,976 (23976/1000) кадра/сек
Цветовое пространство : YUV
Субдискретизация насыщенности : 4:2:0
Битовая глубина : 8 бит
Тип развёртки : Прогрессивная
Метод сжатия : С потерями
Бит/(Пиксели*Кадры) : 0.242
Размер потока : 1,11 Гбайт (76%)
Библиотека кодирования : XviD 73
Аудио
Идентификатор : 1
Формат : AC-3
Формат/Информация : Audio Coding 3
Параметр Endianness формата : Big
Идентификатор кодека : 2000
Продолжительность : 2 ч. 4 м.
Вид битрейта : Постоянный
Битрейт : 384 Кбит/сек
Каналы : 6 каналов
Расположение каналов : Front: L C R, Side: L R, LFE
Частота : 48,0 КГц
Частота кадров : 31,250 кадров/сек (1536 SPF)
Битовая глубина : 16 бит
Метод сжатия : С потерями
Размер потока : 343 Мбайт (23%)
Выравнивание : Соединение по промежуткам
Продолжительность промежутка : 32 мс. (0,77 видеокадр)
Рип и релиз от:
[Profile] [PM]

Dylanpex

Gender:

Longevity: 10 months 4 days

Posts: 1

Location: United States



: None

Торрент-статистика

Post 16-Jan-2020 15:11 (after 5 months 20 days)

[Quote]

Our Drug Prices are 70% less than your local pharmacy
BESTMEDS24.COM
Our online pharmacy is the leader in delivering medications throughout the world.
Our goal is to provide medications at discount rates to everyone who is affected by expensive local prices.
Our company https://bestmeds24.com is a professionally managed distributor of generic drugs.
We provide high-quality service supplying drugs all over the world.
<a href="https://bestmeds24.com" />online pharmacy</a>
[Profile] [PM]
Кто просматривает тему:

Display posts from previous:    

The time now is: Today 04:49

All times are GMT



You cannot post new topics in this forum
You cannot reply to topics in this forum
You cannot edit your posts in this forum
You cannot delete your posts in this forum
You cannot vote in polls in this forum
You cannot attach files in this forum
You cannot download files in this forum